* Dettagli Torrent   globale  | Commenti (0) 


- MacGyver - Stagione 01 (1985) [COMPLETE] 1080p H264 Ita AAC Eng AC3 Sub Ita Eng -


Download via torrent:
Categoria bittorrent SerieTv
Descrizione










Titolo Originale/Original Title: MacGyver
Data Uscita/Release Data: 29 Settembre 1985
Genere/Genres: Azione, Avventura, Thriller, Spionaggio
Anno/Year: 1985
Paese/Country: Canada, USA
Durata/Runtime: 48 minuti circa a episodio
Numero Episodi: 139
Regia/Directed: Charles Correll, William Gereghty, Michael Vejar, Michael Caffey, Cliff Bole, Michael Preece
Sceneggiatura/Writer: Lee David Zlotoff, John Sheppard, Rick Drew, Chris Haddock, Paul B. Margolis, Art Washington, Marianne Clarkson, Kerry Lenhart
Fotografia/Cinematography: William Gereghty, Tony Westman, Frank Raymond, Jack Whitman
Produzione/Production: Paramount Television
Distribuzione/Distributors: Fox




Richard Dean Anderson veste i panni di Angus MacGyver in sette stagioni e in due film per il piccolo schermo.
Il personaggio della serie è sempre chiamato MacGyver e si scopre il nome di battesimo (Angus) solo negli episodi MacGyver alla corte di Re Artù e Tutto può cambiare.
Dana Elcar: Peter Thornton (stagioni 1-7), migliore amico di MacGyver, nonché presidente della Phoenix Foundation. Ha una moglie da cui è divorziato che si vede solo in due episodi (stagione 2 e 6). Ha anche un figlio di nome Michael che compare solo due volte e, per di più, con il volto di due attori diversi (come avvenuto per la moglie).
L'attore, malato di glaucoma, viene in un primo momento allontanato dalla produzione finché Richard Dean Anderson non insiste per averlo di nuovo al suo fianco per tutte le nuove stagioni. La produzione decide così di adattare lo stato di salute del personaggio a quello dell'attore.[1] Verso la fine della serie Dana Elcar diviene cieco.
Bruce McGill: Jack Dalton (stagioni 2-7), pilota di aerei, amico storico di MacGyver, si trova sempre in mezzo ai guai che poi MacGyver deve puntualmente risolvere. Spesso racconta frottole, tuttavia un tic all'occhio sinistro lo smaschera quando mente. MacGyver ne rimane comunque un amico fraterno.
Michael Des Barres: Murdoc (stagioni 2-7), uno dei più acerrimi nemici di MacGyver; è un assassino e lavora per una organizzazione criminale che compie delitti su commissione. Murdoc non si fa scrupoli per ottenere ciò che vuole e odia MacGyver, con cui ha avuto diversi scontri e ha sempre avuto la peggio; ogni volta però che MacGyver crede di averlo eliminato, Murdoc ritorna più agguerrito di prima, pronto a perseguire nuovamente le proprie attività. Murdoc però non è una persona che non prova sentimenti: infatti, quando i suoi genitori furono uccisi, egli fece in modo che sua sorella crescesse lontana dal suo mondo per proteggerla. Nonostante questo i membri di questa rapiscono la sorella per ricattarlo quando Murdoc decide di non lavorare più per l'organizzazione; Murdoc allora chiede aiuto proprio a MacGyver per liberarla, promettendo in cambio le prove che incastrerebbero i membri dell'organizzazione e Murdoc stesso. Liberata la ragazza però Murdoc fugge di nuovo.
Elyssa Davalos: Nikki Carpenter (stagione 3), agente della Fondazione Phoenix che coopera con MacGyver e che ha un feeling di "amore e odio" con il protagonista.
Teri Hatcher: Penny Parker (stagioni 2-4), conosciuta da MacGyver per caso in una rocambolesca avventura in Bulgaria. I due diventeranno buoni amici e si rivedranno in diverse avventure.




MacGyver è un agente operativo di un'Agenzia Governativa (chiamata DXS che sta per Department of eXternal Services) che, successivamente, diviene un attivo collaboratore della Fondazione Phoenix. È un eroe solitario che non fa uso di violenza né di armi da fuoco. Aiuta i deboli, rispetta l'ambiente, ama il prossimo ed è fiducioso nella legge. È single e a differenza dei cliché degli eroi solitari non è un donnaiolo. In sette stagioni ha poche relazioni d'amore, una delle quali gli diviene quasi fatale. MacGyver è un ex giocatore di hockey su ghiaccio, cresciuto e laureatosi in Minnesota, che vive e opera a Los Angeles, pur spostandosi laddove le sue missioni lo richiedono. Le sue armi sono l'ingegno e l'intelligenza e i suoi unici equipaggiamenti sono un coltellino svizzero e talvolta anche nastro adesivo, che utilizza spesso nei suoi cosiddetti "macgyverismi", opere dell'ingegno con oggetti e cose che trova attorno a lui.
Oltre a ripudiare la violenza e l'uso delle armi non fuma ed è astemio. Queste scelte di vita sono spiegate in due episodi: il ripudio per le armi è nato quando, da bambino, si trovava in compagnia di amichetti che giocavano con una pistola carica e partendo accidentalmente un colpo uno di loro morì. Il ripudio per l'alcool è invece nato quando un suo amico perse la vita in un incidente stradale poiché ubriaco. Non ha famiglia, perché perde il padre e la nonna paterna in un incidente stradale mentre la madre muore d'infarto durante una missione in Afghanistan. Gli unici parenti di cui si viene a conoscenza durante la serie sono il nonno Harry Jackson, che muore nell'episodio della quinta stagione La nave del sole, ed il figlio Sean, di cui viene a conoscenza solamente nell'ultimo episodio della serie.
MacGyver è un eroe solitario nonostante sia circondato da molti amici. Primo tra tutti è Peter "Pete" Thornton, presidente della Fondazione Phoenix e anche lui ex agente della DXS, agenzia per la sicurezza degli USA. Le missioni e i compiti di MacGyver cambiano di episodio in episodio e spesso hanno a che fare con spietati criminali o scaltri truffatori. Il suo nemico per eccellenza è Murdoc, che compare in diversi episodi con l'obiettivo specifico di uccidere MacGyver, senza mai riuscirvi. L'eroe, sportivo e single, si ritroverà una sorpresa inaspettata alla fine del serial; scoprirà di essere padre e rinuncerà alla neo-presidenza della Fondazione Phoenix.











[spoil]
General
Unique ID                                : 161359968514954728342890660303306835678 (0x7964CCAD442982F4D138FB3232BD46DE)
Complete name                            : MacGyver (1985) [tmdbid=2875]S011x01 Episodio pilota.mkv
Format                                   : Matroska
Format version                           : Version 4
File size                                : 2.69 GiB
Duration                                 : 48 min 47 s
Overall bit rate                         : 7 887 kb/s
Encoded date                             : UTC 2022-05-14 10:26:11
Writing application                      : mkvmerge v66.0.0 ('Josie&#39 64-bit
Writing library                          : libebml v1.4.2 + libmatroska v1.6.4

Video
ID                                       : 1
Format                                   : AVC
Format/Info                              : Advanced Video Codec
Format profile                           : [email protected]
Format settings                          : CABAC / 3 Ref Frames
Format settings, CABAC                   : Yes
Format settings, Reference frames        : 3 frames
Codec ID                                 : V_MPEG4/ISO/AVC
Duration                                 : 48 min 45 s
Bit rate                                 : 7 396 kb/s
Width                                    : 1 440 pixels
Height                                   : 1 080 pixels
Display aspect ratio                     : 4:3
Frame rate mode                          : Constant
Frame rate                               : 23.976 (24000/1001) FPS
Color space                              : YUV
Chroma subsampling                       : 4:2:0
Bit depth                                : 8 bits
Scan type                                : Progressive
Bits/(Pixel*Frame)                       : 0.198
Stream size                              : 2.52 GiB (94%)
Default                                  : Yes
Forced                                   : No

Audio #1
ID                                       : 2
Format                                   : AAC LC
Format/Info                              : Advanced Audio Codec Low Complexity
Codec ID                                 : A_AAC-2
Duration                                 : 48 min 46 s
Bit rate                                 : 301 kb/s
Channel(s)                               : 2 channels
Channel layout                           : L R
Sampling rate                            : 48.0 kHz
Frame rate                               : 46.875 FPS (1024 SPF)
Compression mode                         : Lossy
Stream size                              : 105 MiB (4%)
Language                                 : Italian
Default                                  : Yes
Forced                                   : No

Audio #2
ID                                       : 3
Format                                   : AC-3
Format/Info                              : Audio Coding 3
Commercial name                          : Dolby Digital
Codec ID                                 : A_AC3
Duration                                 : 48 min 47 s
Bit rate mode                            : Constant
Bit rate                                 : 192 kb/s
Channel(s)                               : 2 channels
Channel layout                           : L R
Sampling rate                            : 48.0 kHz
Frame rate                               : 31.250 FPS (1536 SPF)
Compression mode                         : Lossy
Stream size                              : 67.0 MiB (2%)
Language                                 : English
Service kind                             : Complete Main
Default                                  : No
Forced                                   : No

Text #1
ID                                       : 4
Format                                   : UTF-8
Codec ID                                 : S_TEXT/UTF8
Codec ID/Info                            : UTF-8 Plain Text
Duration                                 : 47 min 42 s
Bit rate                                 : 61 b/s
Count of elements                        : 555
Stream size                              : 21.5 KiB (0%)
Language                                 : Italian
Default                                  : No
Forced                                   : No

Text #2
ID                                       : 5
Format                                   : UTF-8
Codec ID                                 : S_TEXT/UTF8
Codec ID/Info                            : UTF-8 Plain Text
Duration                                 : 47 min 17 s
Bit rate                                 : 67 b/s
Count of elements                        : 598
Stream size                              : 23.5 KiB (0%)
Language                                 : English
Default                                  : No
Forced                                   : No

Menu
00:00:00.000                             : Chapter 01
00:08:39.000                             : Chapter 02
00:09:50.715                             : Chapter 03
00:15:35.101                             : Chapter 04
00:23:12.641                             : Chapter 05
00:36:14.297                             : Chapter 06
00:48:10.638                             : Chapter 07
[/spoil]


Info: Per scaricare devi usare un client come uTorrent o Transmission
AnnounceURL
udp://tracker.torrent.eu.org:451/announce
Hash fd1bd410426a474c42433ca5878ba9209891c9a7
Peers seeds: 7 , leech: 2
Size 63.47 GB
Completato 156x
Aggiunto 07.06.22 - 10:06:17
Uploader   denise1234
Votazione (Voti: 0)


Condividi questo bittorrent:


html/blog:


bbcode/forum:




Aggiungi Commento