* Dettagli Torrent   globale  | Commenti (0) 


- Sogni di donna (1955) 1080p x265 AC3 Ita AAC Swe Sub Ita Eng -


Download via torrent:
Categoria bittorrent BDRip
Descrizione
[url=./viewtopic.php?p=96491#p96491][img]./images/progetti/video/Ingmar.Bergman/ingmar-bergman-mini.jpg[/img][/url]



[size=150] Sogni di donna (1955) [/size]



SCHEDA FILM
Titolo: Sogni di donna
Titolo originale: Kvinnodröm
Paese di produzione: Svezia
Anno: 1955
Genere: drammatico
Regia: Ingmar Bergman
Durata: 87 min

CAST
Eva Dahlbeck: Susanne
Harriet Andersson: Doris
Gunnar Björnstrand: Otto Sönderby
Ulf Palme: Henrik Lobelius
Inga Landgré: signora Lobelius
Benkt-Åke Benktsson: signor Magnus
Sven Lindberg: Palle Palt
Kerstin Hedeby: Marianne Sönderby

TRAMA
Susanne è la direttrice di un atelier, ed è innamorata di un uomo sposato, Henrik. Per vederlo va con la sua amica Doris, reduce da un litigio con il fidanzato, nella città dove abita Henrik. Arrivata in città Susanne gli telefona e i due fissano un incontro in un albergo. Dopo una iniziale freddezza, i due amanti si ritrovano e decidono di fare un viaggio insieme, ma la moglie di Henrik, che ha scoperto il tradimento, convince il marito a ritornare a casa: Susanne rimane profondamente addolorata.
Nel frattempo Doris incontra per la strada un anziano signore che, dopo averle regalato vestiti e gioielli, la conduce a casa sua dove vive con la figlia, una donna corrotta e cinica, con la quale Doris ha un'accesa discussione. Doris se ne va da quella casa e il giorno seguente si riconcilia con il fidanzato.

SCREENSHOT




SCHEDA TECNICA
[spoiler]
General
Unique ID                                : 216190326223638082108330096021193679547 (0xA2A4BE071DEBD4C0BE34A63FD874E2BB)
Complete name                            : Sogni di donna (1955) - Kvinnodröm (Ingmar Bergman) [1080p, x265, AC3][ITA, SWE].mkv
Format                                   : Matroska
Format version                           : Version 4
File size                                : 3.42 GiB
Duration                                 : 1 h 28 min
Overall bit rate                         : 5 563 kb/s
Movie name                               : Sogni di donna
Encoded date                             : UTC 2022-03-08 16:53:35
Writing application                      : mkvmerge v45.0.0 ('Heaven in Pennies&#39 64-bit
Writing library                          : libebml v1.3.10 + libmatroska v1.5.2

Video
ID                                       : 1
Format                                   : HEVC
Format/Info                              : High Efficiency Video Coding
Format profile                           : [email protected]@Main
Codec ID                                 : V_MPEGH/ISO/HEVC
Duration                                 : 1 h 28 min
Bit rate                                 : 4 758 kb/s
Width                                    : 1 484 pixels
Height                                   : 1 080 pixels
Display aspect ratio                     : 1.374
Frame rate mode                          : Constant
Frame rate                               : 23.976 (24000/1001) FPS
Color space                              : YUV
Chroma subsampling                       : 4:2:0
Bit depth                                : 8 bits
Bits/(Pixel*Frame)                       : 0.124
Stream size                              : 2.92 GiB (86%)
Writing library                          : x265 3.2.1+1-b5c86a64bbbe:[Linux][GCC 9.3.0][64 bit] 8bit+10bit+12bit
Encoding settings                        : cpuid=1111039 / frame-threads=4 / wpp / no-pmode / no-pme / no-psnr / no-ssim / log-level=2 / input-csp=1 / input-res=1484x1080 / interlace=0 / total-frames=0 / level-idc=0 / high-tier=1 / uhd-bd=0 / ref=4 / no-allow-non-conformance / no-repeat-headers / annexb / no-aud / no-hrd / info / hash=0 / no-temporal-layers / open-gop / min-keyint=24 / keyint=240 / gop-lookahead=0 / bframes=4 / b-adapt=2 / b-pyramid / bframe-bias=0 / rc-lookahead=25 / lookahead-slices=4 / scenecut=40 / radl=0 / no-splice / no-intra-refresh / ctu=64 / min-cu-size=8 / no-rect / no-amp / max-tu-size=32 / tu-inter-depth=1 / tu-intra-depth=1 / limit-tu=0 / rdoq-level=2 / dynamic-rd=0.00 / no-ssim-rd / signhide / no-tskip / nr-intra=0 / nr-inter=0 / no-constrained-intra / no-strong-intra-smoothing / max-merge=3 / limit-refs=3 / limit-modes / me=3 / subme=3 / merange=57 / temporal-mvp / no-hme / weightp / no-weightb / no-analyze-src-pics / deblock=0:0 / sao / no-sao-non-deblock / rd=4 / selective-sao=4 / no-early-skip / rskip / no-fast-intra / no-tskip-fast / no-cu-lossless / no-b-intra / no-splitrd-skip / rdpenalty=0 / psy-rd=2.00 / psy-rdoq=1.00 / no-rd-refine / no-lossless / cbqpoffs=0 / crqpoffs=0 / rc=crf / crf=22.0 / qcomp=0.60 / qpstep=4 / stats-write=0 / stats-read=0 / ipratio=1.40 / pbratio=1.30 / aq-mode=1 / aq-strength=1.00 / cutree / zone-count=0 / no-strict-cbr / qg-size=32 / no-rc-grain / qpmax=69 / qpmin=0 / no-const-vbv / sar=1 / overscan=0 / videoformat=5 / range=0 / colorprim=1 / transfer=1 / colormatrix=1 / chromaloc=0 / display-window=0 / cll=0,0 / min-luma=0 / max-luma=255 / log2-max-poc-lsb=8 / vui-timing-info / vui-hrd-info / slices=1 / no-opt-qp-pps / no-opt-ref-list-length-pps / no-multi-pass-opt-rps / scenecut-bias=0.05 / no-opt-cu-delta-qp / no-aq-motion / no-hdr / no-hdr-opt / no-dhdr10-opt / no-idr-recovery-sei / analysis-reuse-level=5 / scale-factor=0 / refine-intra=0 / refine-inter=0 / refine-mv=1 / refine-ctu-distortion=0 / no-limit-sao / ctu-info=0 / no-lowpass-dct / refine-analysis-type=0 / copy-pic=1 / max-ausize-factor=1.0 / no-dynamic-refine / no-single-sei / no-hevc-aq / no-svt / no-field / qp-adaptation-range=1.00
Default                                  : Yes
Forced                                   : No
Color range                              : Limited
Color primaries                          : BT.709
Transfer characteristics                 : BT.709
Matrix coefficients                      : BT.709

Audio #1
ID                                       : 2
Format                                   : AC-3
Format/Info                              : Audio Coding 3
Commercial name                          : Dolby Digital
Codec ID                                 : A_AC3
Duration                                 : 1 h 28 min
Bit rate mode                            : Constant
Bit rate                                 : 640 kb/s
Channel(s)                               : 2 channels
Channel layout                           : L R
Sampling rate                            : 48.0 kHz
Frame rate                               : 31.250 FPS (1536 SPF)
Compression mode                         : Lossy
Delay relative to video                  : -21 ms
Stream size                              : 403 MiB (12%)
Title                                    : Italiano
Language                                 : Italian
Service kind                             : Complete Main
Default                                  : Yes
Forced                                   : No

Audio #2
ID                                       : 3
Format                                   : AAC LC
Format/Info                              : Advanced Audio Codec Low Complexity
Codec ID                                 : A_AAC-2
Duration                                 : 1 h 28 min
Bit rate                                 : 156 kb/s
Channel(s)                               : 1 channel
Channel layout                           : C
Sampling rate                            : 48.0 kHz
Frame rate                               : 46.875 FPS (1024 SPF)
Compression mode                         : Lossy
Delay relative to video                  : -21 ms
Stream size                              : 98.4 MiB (3%)
Title                                    : Swedish
Language                                 : Swedish
Default                                  : No
Forced                                   : No

Text #1
ID                                       : 4
Format                                   : UTF-8
Codec ID                                 : S_TEXT/UTF8
Codec ID/Info                            : UTF-8 Plain Text
Duration                                 : 1 h 26 min
Bit rate                                 : 40 b/s
Count of elements                        : 826
Stream size                              : 25.5 KiB (0%)
Title                                    : Italiano
Language                                 : Italian
Default                                  : Yes
Forced                                   : No

Text #2
ID                                       : 5
Format                                   : PGS
Muxing mode                              : zlib
Codec ID                                 : S_HDMV/PGS
Codec ID/Info                            : Picture based subtitle format used on BDs/HD-DVDs
Duration                                 : 1 h 26 min
Bit rate                                 : 35.4 kb/s
Count of elements                        : 1754
Stream size                              : 22.0 MiB (1%)
Title                                    : English
Language                                 : English
Default                                  : No
Forced                                   : No

[/spoiler]
Info: Per scaricare devi usare un client come uTorrent o Transmission
AnnounceURL
udp://tracker.torrent.eu.org:451/announce
Hash 3f149b14e08c0af44971416242ffe7962a9c6485
Peers seeds: 9 , leech: 1
Size 3.42 GB
Completato 233x
Aggiunto 31.05.22 - 16:05:28
Uploader   denise1234
Votazione (Voti: 0)


Condividi questo bittorrent:


html/blog:


bbcode/forum:




Aggiungi Commento