* Dettagli Torrent   globale  | Commenti (0) 


- [2006] 300 [OPEN MATTE] [1080p.x265.10bit.ITA-ENG] (by.phadron) MIRCrew -


Download via torrent:
Categoria bittorrent BDRip
Descrizione





Screen: QUI
Info: MIRCrew forum release

Unique ID                                : 329799891060903637937143353350084389657 (0xF81D2609AA601142F844EE936D486B19)
Complete name                            : [2006] 300 [OPEN MATTE] [1080p.x265.10bit.ITA-ENG] (by.phadron) MIRCrew.mkv
Format                                   : Matroska
Format version                           : Version 4
File size                                : 3.13 GiB
Duration                                 : 1 h 56 min
Overall bit rate                         : 3 836 kb/s
Movie name                               : 300 (2006) OPEN MATTE
Encoded date                             : UTC 2022-05-27 06:44:00
Writing application                      : mkvmerge v68.0.0 ('The Curtain&#39 64-bit
Writing library                          : libebml v1.4.2 + libmatroska v1.6.4 / Lavf58.20.100
Cover                                    : Yes
Attachments                              : 2006-300-Open-Matte_cover.jpg

Video
ID                                       : 1
Format                                   : HEVC
Format/Info                              : High Efficiency Video Coding
Format profile                           : Main [email protected]@Main
Codec ID                                 : V_MPEGH/ISO/HEVC
Duration                                 : 1 h 56 min
Bit rate                                 : 2 992 kb/s
Width                                    : 1 920 pixels
Height                                   : 1 080 pixels
Display aspect ratio                     : 16:9
Frame rate mode                          : Constant
Frame rate                               : 23.976 (24000/1001) FPS
Color space                              : YUV
Chroma subsampling                       : 4:2:0
Bit depth                                : 10 bits
Bits/(Pixel*Frame)                       : 0.060
Stream size                              : 2.44 GiB (78%)
Writing library                          : x265 3.0:[Windows][GCC 7.1.0][64 bit] 10bit
Encoding settings                        : cpuid=1111039 / frame-threads=5 / numa-pools=32,0 / wpp / no-pmode / no-pme / no-psnr / no-ssim / log-level=2 / input-csp=1 / input-res=1920x1080 / interlace=0 / total-frames=0 / level-idc=0 / high-tier=1 / uhd-bd=0 / ref=4 / no-allow-non-conformance / no-repeat-headers / annexb / no-aud / no-hrd / info / hash=0 / no-temporal-layers / open-gop / min-keyint=24 / keyint=240 / gop-lookahead=0 / bframes=4 / b-adapt=2 / b-pyramid / bframe-bias=0 / rc-lookahead=25 / lookahead-slices=4 / scenecut=40 / radl=0 / no-splice / no-intra-refresh / ctu=64 / min-cu-size=8 / no-rect / no-amp / max-tu-size=32 / tu-inter-depth=1 / tu-intra-depth=1 / limit-tu=0 / rdoq-level=2 / dynamic-rd=0.00 / no-ssim-rd / signhide / no-tskip / nr-intra=0 / nr-inter=0 / no-constrained-intra / no-strong-intra-smoothing / max-merge=3 / limit-refs=3 / limit-modes / me=3 / subme=3 / merange=57 / temporal-mvp / weightp / no-weightb / no-analyze-src-pics / deblock=0:0 / sao / no-sao-non-deblock / rd=4 / no-early-skip / rskip / no-fast-intra / no-tskip-fast / no-cu-lossless / no-b-intra / no-splitrd-skip / rdpenalty=0 / psy-rd=2.00 / psy-rdoq=1.00 / no-rd-refine / no-lossless / cbqpoffs=0 / crqpoffs=0 / rc=abr / bitrate=3000 / qcomp=0.60 / qpstep=4 / stats-write=0 / stats-read=2 / cplxblur=20.0 / qblur=0.5 / ipratio=1.40 / pbratio=1.30 / aq-mode=2 / aq-strength=1.00 / cutree / zone-count=0 / no-strict-cbr / qg-size=32 / no-rc-grain / qpmax=69 / qpmin=0 / no-const-vbv / sar=1 / overscan=0 / videoformat=5 / range=0 / colorprim=1 / transfer=1 / colormatrix=1 / chromaloc=0 / display-window=0 / max-cll=0,0 / min-luma=0 / max-luma=1023 / log2-max-poc-lsb=8 / vui-timing-info / vui-hrd-info / slices=1 / no-opt-qp-pps / no-opt-ref-list-length-pps / no-multi-pass-opt-rps / scenecut-bias=0.05 / no-opt-cu-delta-qp / no-aq-motion / no-hdr / no-hdr-opt / no-dhdr10-opt / no-idr-recovery-sei / analysis-reuse-level=5 / scale-factor=0 / refine-intra=0 / refine-inter=0 / refine-mv=0 / refine-ctu-distortion=0 / no-limit-sao / ctu-info=0 / no-lowpass-dct / refine-analysis-type=0 / copy-pic=1 / max-ausize-factor=1.0 / no-dynamic-refine / no-single-sei / no-hevc-aq / qp-adaptation-range=1.00
Language                                 : English
Default                                  : Yes
Forced                                   : No
Color range                              : Limited
Color primaries                          : BT.709
Transfer characteristics                 : BT.709
Matrix coefficients                      : BT.709

Audio #1
ID                                       : 2
Format                                   : AAC LC
Format/Info                              : Advanced Audio Codec Low Complexity
Codec ID                                 : A_AAC-2
Duration                                 : 1 h 56 min
Bit rate                                 : 384 kb/s
Channel(s)                               : 6 channels
Channel layout                           : C L R Ls Rs LFE
Sampling rate                            : 48.0 kHz
Frame rate                               : 46.875 FPS (1024 SPF)
Compression mode                         : Lossy
Stream size                              : 320 MiB (10%)
Writing library                          : Lavc58.35.100 libfdk_aac
Language                                 : English
Default                                  : No
Forced                                   : No

Audio #2
ID                                       : 3
Format                                   : AC-3
Format/Info                              : Audio Coding 3
Commercial name                          : Dolby Digital
Codec ID                                 : A_AC3
Duration                                 : 1 h 56 min
Bit rate mode                            : Constant
Bit rate                                 : 448 kb/s
Channel(s)                               : 6 channels
Channel layout                           : L R C LFE Ls Rs
Sampling rate                            : 48.0 kHz
Frame rate                               : 31.250 FPS (1536 SPF)
Compression mode                         : Lossy
Delay relative to video                  : 30 ms
Stream size                              : 374 MiB (12%)
Language                                 : Italian
Service kind                             : Complete Main
Default                                  : Yes
Forced                                   : No

Text #1
ID                                       : 4
Format                                   : UTF-8
Codec ID                                 : S_TEXT/UTF8
Codec ID/Info                            : UTF-8 Plain Text
Duration                                 : 1 h 47 min
Bit rate                                 : 42 b/s
Count of elements                        : 956
Stream size                              : 33.2 KiB (0%)
Language                                 : English
Default                                  : No
Forced                                   : No

Text #2
ID                                       : 5
Format                                   : PGS
Muxing mode                              : zlib
Codec ID                                 : S_HDMV/PGS
Codec ID/Info                            : Picture based subtitle format used on BDs/HD-DVDs
Duration                                 : 1 h 55 min
Bit rate                                 : 24.8 kb/s
Count of elements                        : 2118
Stream size                              : 20.5 MiB (1%)
Language                                 : Italian
Default                                  : Yes
Forced                                   : No

Menu
00:00:00.000                             : :Spartan Education
00:05:17.025                             : :Messenger From Persia
00:10:23.456                             : :Sparta's Reply
00:13:16.879                             : :The Ephors
00:16:52.220                             : :The Oracle
00:19:44.558                             : :What Should a Free Man Do?
00:22:28.347                             : :With or on Your Shield
00:27:03.747                             : :More Soldiers Than You
00:29:16.338                             : :Hunters of Men's Souls
00:33:17.871                             : :Glorious Rain
00:35:06.980                             : :Fraction of the Monster
00:37:49.517                             : :Wall of the Dead
00:40:46.361                             : :Ephialtes' Request
00:44:10.481                             : :Hot Gates Battle
00:49:17.371                             : :Today No Spartan Dies
00:52:46.413                             : :Make Theron Your Ally
00:55:33.831                             : :Meeting Xerxes
01:01:40.989                             : :Immortals Put to the Test
01:05:20.917                             : :Uber Immortal's Fall
01:08:42.994                             : :Numbers Count for Nothing
01:12:43.359                             : :Blood-Drunk
01:15:50.546                             : :Betrayer's Bargain
01:18:38.422                             : :Queen's Bargain
01:22:21.103                             : repare for Glory
01:26:43.699                             : :Tell Them Our Story
01:29:11.555                             : :Trickster in True Form
01:33:59.384                             : :Victory in Surrender
01:38:54.887                             : :Fallen Heroes
01:43:26.242                             : :Go Tell the Spartans
01:49:03.537                             : :End Credits
Info: Per scaricare devi usare un client come uTorrent o Transmission
AnnounceURL
udp://tracker.torrent.eu.org:451/announce
Hash d8a59b3d2148ba532ac94bbdbd8920a301067f49
Peers seeds: 13 , leech: 0
Size 3.13 GB
Completato 350x
Aggiunto 27.05.22 - 12:05:21
Uploader   phadron
Votazione (Voti: 0)


Condividi questo bittorrent:


html/blog:


bbcode/forum:




Aggiungi Commento