* Dettagli Torrent   globale  | Commenti (0) 


- Black.Sails.S04.ITA-ENG.1080p.AMZN.WEB-DL.DDP5.1.H.264-gattopollo -


Download via torrent:
Categoria bittorrent SerieTv
Descrizione
[center].:: TITOLO ::.[/center]

[center]Black.Sails.S01.ITA-ENG.1080p.AMZN.WEB-DL.DDP5.1.H.264-gattopollo[/size][/center]

[center][/center]

[center].:: INFO SERIE ::.[/center]

[center]
Titolo originale Black Sails
Paese Stati Uniti d'America
Anno 2014-2017
Formato serie TV
Genere in costume, avventura, drammatico
Stagioni 4
Episodi 38
Durata 49-65 min (episodio)
Lingua originale inglese
Rapporto 16:9
IMDb


.:: TRAMA ::.

Siamo nel 1715, l’età dell’oro della pirateria nei Caraibi è al suo apice. Nella colonia di New Providence il Capitano Flint, un uomo tormentato da complesse e ambigue motivazioni, si allea con Eleanor Guthrie, la figlia del boss del contrabbando locale, che trasforma il bottino dei pirati in lauti profitti. Insieme hanno un piano per cacciare il tesoro del secolo. Contro di loro una serie di avversari: capitani rivali, il padre di Eleanor e soprattutto John Silver, un giovane marinaio reclutato nella ciurma di Flint, che in qualche modo riuscirà a minare costantemente l’agenda del suo capitano.

.:: SCREENSHOT ::.

 [/center]

[center].:: INFO TECNICHE ::.

Sorgente Video: AMZN
Sorgente Audio : AMZN
Risoluzione: 1920x1080, H.264 @ 10000kb/s CBR
Audio 1: ITA E-AC3  6ch @640Kb/s
Audio 2: ENG E-AC3  6ch @640kb/s
Sottotitoli: ITA FORCED, ITA FULL, ENG FORCED, ENG FULL, ENG SDH [/center]

[center].:: MEDIAINFO ::.[/center]


Code

General
General
Unique ID                                : 243646095360887098357627129448281614554 (0xB74C87F57073FC079F1BB38997B728DA)
Complete name                            : Black.Sails.S01E01.I.ITA-ENG.1080p.AMZN.WEB-DL.DDP5.1.H.264-gattopollo.mkv
Format                                   : Matroska
Format version                           : Version 4
File size                                : 4.87 GiB
Duration                                 : 1 h 4 min
Overall bit rate                         : 10.8 Mb/s
Encoded date                             : UTC 2022-05-03 15:54:55
Writing application                      : mkvmerge v67.0.0 ('Under Stars&#39 64-bit
Writing library                          : libebml v1.4.2 + libmatroska v1.6.4

Video
ID                                       : 1
Format                                   : AVC
Format/Info                              : Advanced Video Codec
Format profile                           : [email protected]
Format settings                          : CABAC / 4 Ref Frames
Format settings, CABAC                   : Yes
Format settings, Reference frames        : 4 frames
Codec ID                                 : V_MPEG4/ISO/AVC
Duration                                 : 1 h 4 min
Bit rate mode                            : Constant
Bit rate                                 : 9 474 kb/s
Nominal bit rate                         : 10 000 kb/s
Width                                    : 1 920 pixels
Height                                   : 1 080 pixels
Display aspect ratio                     : 16:9
Frame rate mode                          : Constant
Frame rate                               : 23.976 (24000/1001) FPS
Color space                              : YUV
Chroma subsampling                       : 4:2:0
Bit depth                                : 8 bits
Scan type                                : Progressive
Bits/(Pixel*Frame)                       : 0.191
Stream size                              : 4.29 GiB (88%)
Language                                 : English
Default                                  : Yes
Forced                                   : No
Color range                              : Limited
Color primaries                          : BT.709
Transfer characteristics                 : BT.709
Matrix coefficients                      : BT.709

Audio #1
ID                                       : 2
Format                                   : E-AC-3
Format/Info                              : Enhanced AC-3
Commercial name                          : Dolby Digital Plus
Codec ID                                 : A_EAC3
Duration                                 : 1 h 4 min
Bit rate mode                            : Constant
Bit rate                                 : 640 kb/s
Channel(s)                               : 6 channels
Channel layout                           : L R C LFE Ls Rs
Sampling rate                            : 48.0 kHz
Frame rate                               : 31.250 FPS (1536 SPF)
Compression mode                         : Lossy
Stream size                              : 297 MiB (6%)
Language                                 : Italian
Service kind                             : Complete Main
Default                                  : Yes
Forced                                   : No

Audio #2
ID                                       : 3
Format                                   : E-AC-3
Format/Info                              : Enhanced AC-3
Commercial name                          : Dolby Digital Plus
Codec ID                                 : A_EAC3
Duration                                 : 1 h 4 min
Bit rate mode                            : Constant
Bit rate                                 : 640 kb/s
Channel(s)                               : 6 channels
Channel layout                           : L R C LFE Ls Rs
Sampling rate                            : 48.0 kHz
Frame rate                               : 31.250 FPS (1536 SPF)
Compression mode                         : Lossy
Stream size                              : 297 MiB (6%)
Language                                 : English
Service kind                             : Complete Main
Default                                  : No
Forced                                   : No

Text #1
ID                                       : 4
Format                                   : UTF-8
Codec ID                                 : S_TEXT/UTF8
Codec ID/Info                            : UTF-8 Plain Text
Duration                                 : 29 min 33 s
Bit rate                                 : 1 b/s
Count of elements                        : 9
Stream size                              : 338 Bytes (0%)
Title                                    : Forced
Language                                 : English
Default                                  : No
Forced                                   : Yes

Text #2
ID                                       : 5
Format                                   : UTF-8
Codec ID                                 : S_TEXT/UTF8
Codec ID/Info                            : UTF-8 Plain Text
Duration                                 : 1 h 3 min
Bit rate                                 : 54 b/s
Count of elements                        : 835
Stream size                              : 25.4 KiB (0%)
Title                                    : SDH
Language                                 : English
Default                                  : No
Forced                                   : No

Text #3
ID                                       : 6
Format                                   : UTF-8
Codec ID                                 : S_TEXT/UTF8
Codec ID/Info                            : UTF-8 Plain Text
Duration                                 : 1 h 3 min
Bit rate                                 : 53 b/s
Count of elements                        : 837
Stream size                              : 25.0 KiB (0%)
Language                                 : English
Default                                  : No
Forced                                   : No

Text #4
ID                                       : 7
Format                                   : UTF-8
Codec ID                                 : S_TEXT/UTF8
Codec ID/Info                            : UTF-8 Plain Text
Duration                                 : 37 min 43 s
Bit rate                                 : 1 b/s
Count of elements                        : 9
Stream size                              : 354 Bytes (0%)
Title                                    : Forced
Language                                 : Italian
Default                                  : Yes
Forced                                   : Yes

Text #5
ID                                       : 8
Format                                   : UTF-8
Codec ID                                 : S_TEXT/UTF8
Codec ID/Info                            : UTF-8 Plain Text
Duration                                 : 1 h 3 min
Bit rate                                 : 50 b/s
Count of elements                        : 627
Stream size                              : 23.6 KiB (0%)
Language                                 : Italian
Default                                  : No
Forced                                   : No

Menu
00:00:00.000                             : en:Captain Parrish's crew faces a new threat
00:05:50.000                             : en:Opening Credits
00:07:23.000                             : en:The pirates begin raiding the ship
00:08:49.000                             : en:The pirates question Captain Parrish
00:10:17.000                             : enufresne tallies up the earnings of the raid
00:12:08.000                             : en:The crew discusses the fate of the Captain
00:15:11.000                             : en:John receives a new assignment
00:16:39.000                             : en:John looks at what the cook was hiding
00:17:09.000                             : en:Captain Flint and Gates discuss the crew
00:19:14.000                             : en:Logan welcomes John to Nassau
00:20:26.000                             : en:Gates assigns Billy a task
00:21:22.000                             : en:John helps Logan unload the goods
00:22:07.000                             : en:John faces a new challenge
00:24:22.000                             : en:Eleanor confronts a captain
00:26:05.000                             : en:Gates makes a request from Eleanor
00:28:32.000                             : en:Captain Flint and Billy make a surprise visit
00:30:22.000                             : en:John and Max make a deal
00:32:04.000                             : en:Gates delivers a message to Mosiah
00:34:50.000                             : en:Captain Flint and John search for answers
00:40:04.000                             : en:Captain Hume begins to have doubts
00:41:46.000                             : en:Singleton discovers Mosiah's intentions
00:42:56.000                             : en:Gates and Eleanor make a disturbing discovery
00:44:01.000                             : en:Captain Vane celebrates his victory
00:45:08.000                             : en:Eleanor confronts Captain Vane
00:46:46.000                             : en:John is anxious for a buyer
00:47:42.000                             : en:Max comforts Eleanor
00:49:55.000                             : en:Captain Flint reveals his plans to Billy
00:52:46.000                             : en:Captain Flint and Billy return to the ship
00:54:45.000                             : en:Captain Flint and Singleton battle for control
01:02:09.000                             : en:Max receives new visitors
01:02:56.000                             : en:End Credits



Info: Per scaricare devi usare un client come uTorrent o Transmission
AnnounceURL
udp://tracker.opentrackr.org:1337/announce
Hash c83a4fd06d4009fab39ca1ef49f0133d8c76a53d
Peers seeds: 13 , leech: 19
Size 39.24 GB
Completato 173x
Aggiunto 12.05.22 - 20:05:39
Uploader   ppb1
Votazione (Voti: 0)


Condividi questo bittorrent:


html/blog:


bbcode/forum:




Aggiungi Commento