* Dettagli Torrent   globale  | Commenti (0) 


- Express.S01E02.Piattini.Cinesi.ITA-SPA.1080p.AMZN.WEB-DL.DDP5.1.H.264-gattopollo.mkv -


Download via torrent:
Categoria bittorrent SerieTv
Descrizione
[center].:: TITOLO ::.[/center]

[center]Express.S01.ITA-SPA.1080p.AMZN.WEB-DL.DDP5.1.H.264-gattopollo[/center]

[center][/center]

[center].:: INFO SERIE ::.[/center]

[center]
Creatori e soggettisti : Iván Escobar
Stagioni : 1
Episodi : 8
Paese : Spagna
IMDb


.:: TRAMA ::.

Storia di una psicologa criminale, Barbara, e della sua famiglia, vittima di un rapimento lampo: una terrificante forma di estorsione che si sta diffondendo in tutto il mondo e, nella maggior parte dei casi, finisce con un omicidio violento. Consapevoli che la paura è il più grande business del mondo, sono in molti a usarla come metodo rapido per trarre profitto. Dopo il suo rapimento, Barbara lavora come negoziatrice in casi simili al suo e il suo obiettivo principale è capire perché è stata rapita e scoprire le persone che hanno distrutto la sua vita e la sua famiglia.

.:: SCREENSHOT ::.

[/center]

[center].:: INFO TECNICHE ::.

Sorgente Video: AMZN
Sorgente Audio : AMZN
Risoluzione: 1920x1080, H.264 CBR
Audio 1: ITA E-AC3 6ch @640Kb/s
Audio 2: SPA E-AC3 6ch @640kb/s
Sottotitoli:ITA FULL [/center]

[center].:: MEDIAINFO ::.[/center]


Code

General
Unique ID                                : 55305407775373141757695623260461389302 (0x299B6F20A928228F2F400248BF20D5F6)
Complete name                            : Express.S01E01.Il.Business.Della.Paura.ITA-SPA.1080p.AMZN.WEB-DL.DDP5.1.H.264-gattopollo.mkv
Format                                   : Matroska
Format version                           : Version 4
File size                                : 3.93 GiB
Duration                                 : 57 min 3 s
Overall bit rate                         : 9 867 kb/s
Encoded date                             : UTC 2022-01-17 22:07:40
Writing application                      : mkvmerge v64.0.0 ('Willows&#39 64-bit
Writing library                          : libebml v1.4.2 + libmatroska v1.6.4

Video
ID                                       : 1
Format                                   : AVC
Format/Info                              : Advanced Video Codec
Format profile                           : [email protected]
Format settings                          : CABAC / 4 Ref Frames
Format settings, CABAC                   : Yes
Format settings, Reference frames        : 4 frames
Codec ID                                 : V_MPEG4/ISO/AVC
Duration                                 : 57 min 2 s
Bit rate mode                            : Constant
Bit rate                                 : 8 585 kb/s
Nominal bit rate                         : 10 000 kb/s
Width                                    : 1 920 pixels
Height                                   : 872 pixels
Display aspect ratio                     : 2.2:1
Frame rate mode                          : Constant
Frame rate                               : 25.000 FPS
Color space                              : YUV
Chroma subsampling                       : 4:2:0
Bit depth                                : 8 bits
Scan type                                : Progressive
Bits/(Pixel*Frame)                       : 0.205
Stream size                              : 3.42 GiB (87%)
Language                                 : Spanish
Default                                  : Yes
Forced                                   : No
Color range                              : Limited
Color primaries                          : BT.709
Transfer characteristics                 : BT.709
Matrix coefficients                      : BT.709

Audio #1
ID                                       : 2
Format                                   : E-AC-3
Format/Info                              : Enhanced AC-3
Commercial name                          : Dolby Digital Plus
Codec ID                                 : A_EAC3
Duration                                 : 57 min 2 s
Bit rate mode                            : Constant
Bit rate                                 : 640 kb/s
Channel(s)                               : 6 channels
Channel layout                           : L R C LFE Ls Rs
Sampling rate                            : 48.0 kHz
Frame rate                               : 31.250 FPS (1536 SPF)
Compression mode                         : Lossy
Stream size                              : 261 MiB (6%)
Language                                 : Italian
Service kind                             : Complete Main
Default                                  : Yes
Forced                                   : No

Audio #2
ID                                       : 3
Format                                   : E-AC-3
Format/Info                              : Enhanced AC-3
Commercial name                          : Dolby Digital Plus
Codec ID                                 : A_EAC3
Duration                                 : 57 min 3 s
Bit rate mode                            : Constant
Bit rate                                 : 640 kb/s
Channel(s)                               : 6 channels
Channel layout                           : L R C LFE Ls Rs
Sampling rate                            : 48.0 kHz
Frame rate                               : 31.250 FPS (1536 SPF)
Compression mode                         : Lossy
Stream size                              : 261 MiB (6%)
Language                                 : Spanish
Service kind                             : Complete Main
Default                                  : No
Forced                                   : No

Text
ID                                       : 4
Format                                   : UTF-8
Codec ID                                 : S_TEXT/UTF8
Codec ID/Info                            : UTF-8 Plain Text
Duration                                 : 56 min 27 s
Bit rate                                 : 64 b/s
Count of elements                        : 720
Stream size                              : 26.7 KiB (0%)
Language                                 : Italian
Default                                  : No
Forced                                   : No

Info: Per scaricare devi usare un client come uTorrent o Transmission
AnnounceURL
udp://tracker.opentrackr.org:1337/announce
Hash e76628f09d01e31f5f4db79610687abc4cb9c659
Peers seeds: 4 , leech: 2
Size 3.73 GB
Completato 258x
Aggiunto 25.01.22 - 01:01:22
Uploader   ppb1
Votazione (Voti: 0)


Condividi questo bittorrent:


html/blog:


bbcode/forum:




Aggiungi Commento