* Dettagli Torrent   globale  | Commenti (0) 


- The.Great.S02E06.Soltanto.Uno.Scherzo.ITA-ENG.1080p.AMZN.WEB-DL.DDP5.1.H.264-gattopollo.mkv -


Download via torrent:
Categoria bittorrent SerieTv
Descrizione
[center].:: TITOLO ::.[/center]

[center]The.Great.S02.ITA-ENG.1080p.AMZN.WEB-DL.DDP5.1.H.264-gattopollo[/center]

[center][/center]

[center].:: INFO SERIE ::.[/center]

[center]
Paese Regno Unito, Australia
Anno 2021 – in produzione
Formato serie TV
Genere commedia, drammatico, biografico, satira
Stagioni 2
Episodi 20
Durata 50 min (episodio)
Lingua originale inglese
Rapporto 2,00:1
IMDb

.:: TRAMA ::.

Sperando nell'amore e nella lucentezza, Caterina trova invece un mondo pericoloso, depravato e arretrato che decide di cambiare. Tutto quello che deve fare è assassinare suo marito, scavalcare la chiesa, confondere i militari e liberarsi della corte.

.:: SCREENSHOT ::.

[/center]


[center].:: INFO TECNICHE ::.

Sorgente Video: Amazon
Sorgente Audio :  Amazon
Risoluzione: 1920x960, H.264 CBR
Audio 1: ITA E-AC3  6ch @640Kb/s
Audio 2: ENG E-AC3  6ch @640Kb/s
Sottotitoli: ITA FORCED, ITA FULL, ENG SDH [/center]

[center].:: MEDIAINFO ::.[/center]


Code

General
Unique ID                                : 193355426603019554426873029669318109196 (0x9176E68DC051B2B529AF0BDA13BD280C)
Complete name                            : The.Great.S02E01.Il.Capo.Sono.Io.ITA-ENG.1080p.AMZN.WEB-DL.DDP5.1.H.264-gattopollo.mkv
Format                                   : Matroska
Format version                           : Version 4
File size                                : 3.79 GiB
Duration                                 : 52 min 31 s
Overall bit rate                         : 10.3 Mb/s
Encoded date                             : UTC 2021-12-19 21:11:14
Writing application                      : mkvmerge v63.0.0 ('Everything&#39 64-bit
Writing library                          : libebml v1.4.2 + libmatroska v1.6.4

Video
ID                                       : 1
Format                                   : AVC
Format/Info                              : Advanced Video Codec
Format profile                           : [email protected]
Format settings                          : CABAC / 4 Ref Frames
Format settings, CABAC                   : Yes
Format settings, Reference frames        : 4 frames
Codec ID                                 : V_MPEG4/ISO/AVC
Duration                                 : 52 min 31 s
Bit rate mode                            : Constant
Bit rate                                 : 9 050 kb/s
Nominal bit rate                         : 10 000 kb/s
Width                                    : 1 920 pixels
Height                                   : 960 pixels
Display aspect ratio                     : 2.000
Frame rate mode                          : Constant
Frame rate                               : 23.976 (24000/1001) FPS
Color space                              : YUV
Chroma subsampling                       : 4:2:0
Bit depth                                : 8 bits
Scan type                                : Progressive
Bits/(Pixel*Frame)                       : 0.205
Stream size                              : 3.32 GiB (88%)
Language                                 : English
Default                                  : Yes
Forced                                   : No
Color range                              : Limited
Color primaries                          : BT.709
Transfer characteristics                 : BT.709
Matrix coefficients                      : BT.709

Audio #1
ID                                       : 2
Format                                   : E-AC-3
Format/Info                              : Enhanced AC-3
Commercial name                          : Dolby Digital Plus
Codec ID                                 : A_EAC3
Duration                                 : 52 min 31 s
Bit rate mode                            : Constant
Bit rate                                 : 640 kb/s
Channel(s)                               : 6 channels
Channel layout                           : L R C LFE Ls Rs
Sampling rate                            : 48.0 kHz
Frame rate                               : 31.250 FPS (1536 SPF)
Compression mode                         : Lossy
Stream size                              : 240 MiB (6%)
Title                                    : Italian
Language                                 : Italian
Service kind                             : Complete Main
Default                                  : Yes
Forced                                   : No

Audio #2
ID                                       : 3
Format                                   : E-AC-3
Format/Info                              : Enhanced AC-3
Commercial name                          : Dolby Digital Plus
Codec ID                                 : A_EAC3
Duration                                 : 52 min 31 s
Bit rate mode                            : Constant
Bit rate                                 : 640 kb/s
Channel(s)                               : 6 channels
Channel layout                           : L R C LFE Ls Rs
Sampling rate                            : 48.0 kHz
Frame rate                               : 31.250 FPS (1536 SPF)
Compression mode                         : Lossy
Stream size                              : 240 MiB (6%)
Title                                    : English
Language                                 : English
Service kind                             : Complete Main
Default                                  : No
Forced                                   : No

Text #1
ID                                       : 4
Format                                   : UTF-8
Codec ID                                 : S_TEXT/UTF8
Codec ID/Info                            : UTF-8 Plain Text
Duration                                 : 52 min 24 s
Bit rate                                 : 0 b/s
Count of elements                        : 10
Stream size                              : 184 Bytes (0%)
Title                                    : Italian [Forced]
Language                                 : Italian
Default                                  : Yes
Forced                                   : Yes

Text #2
ID                                       : 5
Format                                   : UTF-8
Codec ID                                 : S_TEXT/UTF8
Codec ID/Info                            : UTF-8 Plain Text
Duration                                 : 52 min 26 s
Bit rate                                 : 68 b/s
Count of elements                        : 801
Stream size                              : 26.2 KiB (0%)
Title                                    : Italian
Language                                 : Italian
Default                                  : No
Forced                                   : No

Text #3
ID                                       : 6
Format                                   : UTF-8
Codec ID                                 : S_TEXT/UTF8
Codec ID/Info                            : UTF-8 Plain Text
Duration                                 : 52 min 23 s
Bit rate                                 : 85 b/s
Count of elements                        : 1107
Stream size                              : 32.9 KiB (0%)
Title                                    : English
Language                                 : English
Default                                  : No
Forced                                   : No



Info: Per scaricare devi usare un client come uTorrent o Transmission
AnnounceURL
udp://tracker.opentrackr.org:1337/announce
Hash 76d65bb1854040e92b0e4ee7ac65c8e52a3b67b5
Peers seeds: 11 , leech: 1
Size 3.62 GB
Completato 346x
Aggiunto 25.01.22 - 00:01:38
Uploader   ppb1
Votazione (Voti: 0)


Condividi questo bittorrent:


html/blog:


bbcode/forum:




Aggiungi Commento