* Dettagli Torrent   globale  | Commenti (0) 


- Lucifer.S06E01-10.iTA.ENG.AC3.SUB.iTA.ENG.NF.WEB-DL.x264.jeddak-MIRCrew -


Download via torrent:
Categoria bittorrent SerieTv
Descrizione





Lucifer - Stagione 6


Titolo originale: Lucifer
Paese: Stati Uniti d'America
Anno: 2016-2021
Formato: Serie TV
Genere: Fantastico, Poliziesco, Drammatico, Commedia
Stagioni: 6
Episodi: 93
Durata: 40-65 min
Lingua originale: Inglese
Ideatore: Tom Kapinos


INTERPRETI E PERSONAGGI
Tom Ellis: Lucifer Morningstar / Michael Demiurgos
Lauren German: Chloe Decker
Kevin Alejandro: Daniel Espinoza
D. B. Woodside: Amenadiel
Lesley-Ann Brandt: Mazikeen Smith
Scarlett Estevez: Trixie Espinoza
Rachael Harris: Linda Martin
Kevin Rankin: Malcolm Graham
Tricia Helfer: Dea / Charlotte Richards
Aimee Garcia: Ella Lopez
Tom Welling: Marcus Pierce / Caino
Inbar Lavi: Eve
Brianna Hildebrand: Aurora Morningstar / Rory



Nel 2011 Lucifer, annoiato del suo ruolo di signore degli Inferi e rancoroso nei confronti di Dio, suo padre, per averlo condannato a governare l'inferno, abbandona il suo regno insieme al demone Mazikeen e si trasferisce a Los Angeles dove apre un night club di nome "Lux", che in breve tempo diviene molto conosciuto grazie al giro di favori che il suo nuovo proprietario dispensa a più parti.
Circa cinque anni dopo, una serie di circostanze portano Lucifer a conoscere la detective Chloe Decker. Sebbene suo fratello, l'angelo Amenadiel, insista continuamente per farlo tornare all’inferno e Mazikeen gli faccia notare come in lui stiano nascendo sentimenti umani, Lucifer continua a collaborare con Chloe, con la quale nasce un rapporto affettuoso ma al tempo stesso conflittuale, tanto da dover ricorrere alle frequenti visite della terapista Linda Martin.





















General
Unique ID                   : 231101126403401647381003450151164018999 (0xADDC753C5ADC73C0976DC62299C18137)
Complete name               : Lucifer.6x01.La.Serata.Delle.Meraviglie.iTA.ENG.AC3.SUB.iTA.ENG.NF.WEB-DL.x264.jeddak-MIRCrew.mkv
Format                      : Matroska
Format version              : Version 2
File size                   : 553 MiB
Duration                    : 48 min 25 s
Overall bit rate            : 1 596 kb/s
Movie name                  : Lucifer.6x01.La.Serata.Delle.Meraviglie.iTA.ENG.AC3.SUB.iTA.ENG.NF.WEB-DL.x264.jeddak-MIRCrew
Encoded date                : UTC 2021-09-12 10:59:40
Writing application         : mkvmerge v5.6.0 ( 'Kenya Kane' ) built on May 27 2012 16:44:04
Writing library             : libebml v1.2.3 + libmatroska v1.3.0 / Lavf58.29.100

Video
ID                          : 1
Format                      : AVC
Format/Info                 : Advanced Video Codec
Format profile              : [email protected]
Format settings             : CABAC / 4 Ref Frames
Format settings, CABAC      : Yes
Format settings, Reference  : 4 frames
Codec ID                    : V_MPEG4/ISO/AVC
Duration                    : 48 min 23 s
Bit rate                    : 1 180 kb/s
Nominal bit rate            : 1 250 kb/s
Width                       : 720 pixels
Height                      : 404 pixels
Display aspect ratio        : 16:9
Frame rate mode             : Constant
Frame rate                  : 23.976 (24000/1001) FPS
Color space                 : YUV
Chroma subsampling          : 4:2:0
Bit depth                   : 8 bits
Scan type                   : Progressive
Bits/(Pixel*Frame)          : 0.169
Stream size                 : 409 MiB (74%)
Title                       : ...::: jeddak MIRCrew :::...
Writing library             : x264 core 148
Encoding settings           : cabac=1 / ref=3 / deblock=1:-1:-1 / analyse=0x1:0x111 / me=hex / subme=7 / psy=1 / psy_rd=1.00:0.15 / mixed_ref=1 / me_range=16 / chroma_me=1 / trellis=1 / 8x8dct=0 / cqm=0 / deadzone=21,11 / fast_pskip=1 / chroma_qp_offset=-3 / threads=6 / lookahead_threads=1 / sliced_threads=0 / nr=0 / decimate=1 / interlaced=0 / bluray_compat=0 / constrained_intra=0 / bframes=3 / b_pyramid=2 / b_adapt=1 / b_bias=0 / direct=1 / weightb=1 / open_gop=0 / weightp=2 / keyint=240 / keyint_min=24 / scenecut=40 / intra_refresh=0 / rc_lookahead=40 / rc=abr / mbtree=1 / bitrate=1250 / ratetol=1.0 / qcomp=0.60 / qpmin=0 / qpmax=69 / qpstep=4 / vbv_maxrate=14000 / vbv_bufsize=14000 / nal_hrd=none / filler=0 / ip_ratio=1.40 / aq=1:1.00
Default                     : Yes
Forced                      : No
Color range                 : Limited
Color primaries             : BT.709
Transfer characteristics    : BT.709
Matrix coefficients         : BT.709

Audio #1
ID                          : 2
Format                      : AC-3
Format/Info                 : Audio Coding 3
Commercial name             : Dolby Digital
Codec ID                    : A_AC3
Duration                    : 48 min 25 s
Bit rate mode               : Constant
Bit rate                    : 192 kb/s
Channel(s)                  : 2 channels
Channel layout              : L R
Sampling rate               : 48.0 kHz
Frame rate                  : 31.250 FPS (1536 SPF)
Compression mode            : Lossy
Delay relative to video     : -5 ms
Stream size                 : 66.5 MiB (12%)
Title                       : iTA AC3 2.0
Language                    : Italian
Service kind                : Complete Main
Default                     : Yes
Forced                      : No

Audio #2
ID                          : 3
Format                      : AC-3
Format/Info                 : Audio Coding 3
Commercial name             : Dolby Digital
Codec ID                    : A_AC3
Duration                    : 48 min 25 s
Bit rate mode               : Constant
Bit rate                    : 192 kb/s
Channel(s)                  : 2 channels
Channel layout              : L R
Sampling rate               : 48.0 kHz
Frame rate                  : 31.250 FPS (1536 SPF)
Compression mode            : Lossy
Delay relative to video     : -5 ms
Stream size                 : 66.5 MiB (12%)
Title                       : ENG AC3 2.0
Language                    : English
Service kind                : Complete Main
Default                     : No
Forced                      : No

Text #1
ID                          : 4
Format                      : ASS
Codec ID                    : S_TEXT/ASS
Codec ID/Info               : Advanced Sub Station Alpha
Duration                    : 47 min 14 s
Compression mode            : Lossless
Title                       : iTA FORCED
Language                    : Italian
Default                     : Yes
Forced                      : Yes

Text #2
ID                          : 5
Format                      : ASS
Codec ID                    : S_TEXT/ASS
Codec ID/Info               : Advanced Sub Station Alpha
Duration                    : 47 min 14 s
Compression mode            : Lossless
Title                       : iTA REGULAR
Language                    : Italian
Default                     : No
Forced                      : No

Text #3
ID                          : 6
Format                      : ASS
Codec ID                    : S_TEXT/ASS
Codec ID/Info               : Advanced Sub Station Alpha
Duration                    : 46 min 20 s
Compression mode            : Lossless
Title                       : ENG NON UDENTI
Language                    : English
Default                     : No
Forced                      : No
Info: Per scaricare devi usare un client come uTorrent o Transmission
AnnounceURL
udp://tracker.torrent.eu.org:451/announce
Hash 064adf1aa9b9a0589d493da956bfdaf035fe1ee2
Peers seeds: 29 , leech: 2
Size 5.91 GB
Completato 669x
Aggiunto 12.09.21 - 17:09:11
Uploader   jeddak1
Votazione (Voti: 0)


Condividi questo bittorrent:


html/blog:


bbcode/forum:




Aggiungi Commento