* Dettagli Torrent   globale  | Commenti (0) 


- The.Resident.S04E01-14.iTA.ENG.AC3.SUB.iTA.ENG.WEB-DLMux.x264.jeddak-MIRCrew -


Download via torrent:
Categoria bittorrent SerieTv
Descrizione





The Resident - Stagione 4


Titolo originale: The Resident
Paese: Stati Uniti d'America
Anno: 2018 – in produzione
Formato: serie TV
Genere: drammatico, medico
Stagioni: 4
Episodi: 63
Durata: 40 min (episodio)
Lingua originale: inglese


INTERPRETI E PERSONAGGI
Matt Czuchry: Conrad Hawkins
Emily VanCamp: Nicolette "Nic" Nevin
Manish Dayal: Devon Pravesh
Shaunette Renée Wilson: Mina Okafor
Bruce Greenwood: Randolph Bell
Malcolm-Jamal Warner: AJ Austin
Moran Atias: Renata Morali
Merrin Dungey: Claire Thorpe
Melina Kanakaredes: Lane Hunter
Glenn Morshower: Marshall Winthrop
Jane Leeves: Kitt Voss
Morris Chestnut: Barrett Cain



The Resident, serie tv ideata da Amy Holden Jones, Hayley Schore e Roshan Sethi, è un medical drama che vede protagonista il Dott. Conrad Hawkins (Matt Czuchry, Una mamma per amica). Al terzo anno del suo tirocinio, Conrad è già uno dei migliori medici del Chastain Park Memorial Hospital. Affascinante e arrogante, svolge il suo lavoro nel modo più anticonvenzionale possibile, e questo include spegnere le illusioni dei neoarrivati. Come il Dott. Devon Pravesh (Manish Dayal, 90210), un idealista che, accanto a Conrad, si rende conto ben presto che la realtà della sua professione non è quella che aveva immaginato e che i confini morali sono spesso sfocati.
Nelle corsie Devon incontra l'illustre primario di chirurgia Randolph Bell (Bruce Greenwood, The River), volto dell'ospedale e suo medico più richiesto, le cui capacità in calo - e gli errori che ne derivano - sono spesso coperte con l'aiuto di chi sta sotto il suo comando: la Dott.ssa Mina Okafor (Shaunette Renée Wilson), un astro nascente della chirurgia arrivata dalla Nigeria, la quale insidia il dominio di Bell ma si trova negli Stati Uniti solo con un visto temporaneo, e Nicolette Nevin (Emily VanCamp, Revenge), una delle infermiere più rispettate del Chastain Memorial, con la quale Conrad ha una relazione altalenante.
Mentre quest'ultimo apre gli occhi di Devon sulla cruda realtà della vita in ospedale, il giovane medico, un tempo ottimista, realizza che la pratica della medicina è un business, come ogni altro. Non tutti i pazienti sono angeli e non tutti i dottori sono dèi, ma una cosa è certa: le aspettative sono destinate a essere disilluse.





















General
Unique ID                   : 223741725674297787262100327891913618125 (0xA85316C404A91F6695EFDE2C35CB32CD)
Complete name               : The.Resident.4x01.Finche.Morte.Non.Ci.Separi.iTA.ENG.AC3.SUB.iTA.ENG.WEB-DLMux.x264.jeddak-MIRCrew.mkv
Format                      : Matroska
Format version              : Version 2
File size                   : 512 MiB
Duration                    : 44 min 21 s
Overall bit rate            : 1 615 kb/s
Movie name                  : The.Resident.4x01.Finche.Morte.Non.Ci.Separi.iTA.ENG.AC3.SUB.iTA.ENG.WEB-DLMux.x264.jeddak-MIRCrew
Encoded date                : UTC 2021-03-06 11:40:27
Writing application         : mkvmerge v5.6.0 ( 'Kenya Kane' ) built on May 27 2012 16:44:04
Writing library             : libebml v1.2.3 + libmatroska v1.3.0 / Lavf58.29.100

Video
ID                          : 1
Format                      : AVC
Format/Info                 : Advanced Video Codec
Format profile              : [email protected]
Format settings             : CABAC / 4 Ref Frames
Format settings, CABAC      : Yes
Format settings, Reference  : 4 frames
Codec ID                    : V_MPEG4/ISO/AVC
Duration                    : 44 min 21 s
Bit rate                    : 1 250 kb/s
Width                       : 720 pixels
Height                      : 400 pixels
Display aspect ratio        : 16:9
Frame rate mode             : Constant
Frame rate                  : 23.976 (24000/1001) FPS
Color space                 : YUV
Chroma subsampling          : 4:2:0
Bit depth                   : 8 bits
Scan type                   : Progressive
Bits/(Pixel*Frame)          : 0.181
Stream size                 : 380 MiB (74%)
Title                       : ...::: jeddak MIRCrew:::...
Writing library             : x264 core 148
Encoding settings           : cabac=1 / ref=3 / deblock=1:-1:-1 / analyse=0x1:0x111 / me=hex / subme=7 / psy=1 / psy_rd=1.00:0.15 / mixed_ref=1 / me_range=16 / chroma_me=1 / trellis=1 / 8x8dct=0 / cqm=0 / deadzone=21,11 / fast_pskip=1 / chroma_qp_offset=-3 / threads=6 / lookahead_threads=1 / sliced_threads=0 / nr=0 / decimate=1 / interlaced=0 / bluray_compat=0 / constrained_intra=0 / bframes=3 / b_pyramid=2 / b_adapt=1 / b_bias=0 / direct=1 / weightb=1 / open_gop=0 / weightp=2 / keyint=240 / keyint_min=24 / scenecut=40 / intra_refresh=0 / rc_lookahead=40 / rc=abr / mbtree=1 / bitrate=1250 / ratetol=1.0 / qcomp=0.60 / qpmin=0 / qpmax=69 / qpstep=4 / vbv_maxrate=14000 / vbv_bufsize=14000 / nal_hrd=none / filler=0 / ip_ratio=1.40 / aq=1:1.00
Default                     : Yes
Forced                      : No
Color range                 : Limited
Color primaries             : BT.709
Transfer characteristics    : BT.709
Matrix coefficients         : BT.709

Audio #1
ID                          : 2
Format                      : AC-3
Format/Info                 : Audio Coding 3
Commercial name             : Dolby Digital
Codec ID                    : A_AC3
Duration                    : 44 min 21 s
Bit rate mode               : Constant
Bit rate                    : 192 kb/s
Channel(s)                  : 2 channels
Channel layout              : L R
Sampling rate               : 48.0 kHz
Frame rate                  : 31.250 FPS (1536 SPF)
Compression mode            : Lossy
Delay relative to video     : -5 ms
Stream size                 : 60.9 MiB (12%)
Title                       : iTA AC3 2.0
Language                    : Italian
Service kind                : Complete Main
Default                     : Yes
Forced                      : No
Duration_Source             : General_Duration

Audio #2
ID                          : 3
Format                      : AC-3
Format/Info                 : Audio Coding 3
Commercial name             : Dolby Digital
Codec ID                    : A_AC3
Duration                    : 44 min 21 s
Bit rate mode               : Constant
Bit rate                    : 192 kb/s
Channel(s)                  : 2 channels
Channel layout              : L R
Sampling rate               : 48.0 kHz
Frame rate                  : 31.250 FPS (1536 SPF)
Compression mode            : Lossy
Delay relative to video     : -5 ms
Stream size                 : 60.9 MiB (12%)
Title                       : ENG AC3 2.0
Language                    : English
Service kind                : Complete Main
Default                     : No
Forced                      : No

Text #1
ID                          : 4
Format                      : UTF-8
Codec ID                    : S_TEXT/UTF8
Codec ID/Info               : UTF-8 Plain Text
Title                       : iTA FORCED
Language                    : Italian
Default                     : Yes
Forced                      : Yes

Text #2
ID                          : 5
Format                      : UTF-8
Codec ID                    : S_TEXT/UTF8
Codec ID/Info               : UTF-8 Plain Text
Title                       : iTA REGULAR
Language                    : Italian
Default                     : No
Forced                      : No

Text #3
ID                          : 6
Format                      : ASS
Codec ID                    : S_TEXT/ASS
Codec ID/Info               : Advanced Sub Station Alpha
Duration                    : 44 min 20 s
Compression mode            : Lossless
Title                       : ENG NON UDENTI
Language                    : English
Default                     : No
Forced                      : No
Info: Per scaricare devi usare un client come uTorrent o Transmission
AnnounceURL
udp://tracker.torrent.eu.org:451/announce
Hash 5273324ffa42de21912b045822a2d8147bd1bc0b
Peers seeds: 7 , leech: 3
Size 7.02 GB
Completato 101x
Aggiunto 10.06.21 - 11:06:55
Uploader   jeddak1
Votazione (Voti: 0)


Condividi questo bittorrent:


html/blog:


bbcode/forum:




Aggiungi Commento