* Dettagli Torrent   globale  | Commenti (0) 


- Kingdom Season 1 e 2 COMPLETE H264 Ac3 Kor Eng Sub Ita Eng-MIRCrew -


Download via torrent:
Categoria bittorrent SerieTv
Descrizione
Kingdom Season 1 e 2 COMPLETE H264 Ac3 Kor Eng Sub Ita Eng-MIRCrew





Titolo originale ??
Kingdeom
Regia Kim Seong-hun
Sceneggiatura Kim Eun-hee
Paese Corea del Sud
Anno 2019 – in produzione
Formato serial TV
Genere drama coreano, in costume, fantasy, orrore, thriller
Stagioni 2
Puntate 12
Durata 43-56 min (episodio)
Lingua originale coreano





Prima stagione 6 2019 2019
Seconda stagione 6 2020 2020



Ambientato nel periodo Joseon medievale della Corea, il serial racconta la storia di un principe ereditario che parte per un viaggio per indagare sulla grave malattia e presunta morte del re suo padre, ma si imbatte in una misteriosa piaga che si sta diffondendo in tutto il suo paese. La verità minaccia il regno, quando scopre che si tratta di un'epidemia atroce sotto forma di zombie.

della galassia, lontano dall'autorità della Nuova Repubblica.



While strange rumors about their ill King grip a kingdom, the crown prince becomes their only hope against a mysterious plague overtaking the land.

















General

Complete name                            : Kingdom Season 1 & 2 H264 Ac3 Kor Eng Sub Ita Eng-MIRCrewKingdom 1x02.mkv
Format                                   : Matroska
Format version                           : Version 2
File size                                : 639 MiB
Duration                                 : 54mn 21s
Overall bit rate                         : 1 643 Kbps
Movie name                               : MIRCrew
Encoded date                             : UTC 2021-05-02T20:01:21Z
Writing application                      : mkvmerge v5.8.0 ('No Sleep / Pillow&#39 built on Sep  2 2012 15:37:04
Writing library                          : Lavf55.12.0

Video
ID                                       : 1
Format                                   : AVC
Format/Info                              : Advanced Video Codec
Format profile                           : [email protected]
Format settings, CABAC                   : Yes
Format settings, ReFrames                : 4 frames
Codec ID                                 : V_MPEG4/ISO/AVC
Duration                                 : 54mn 21s
Bit rate                                 : 1 226 Kbps
Nominal bit rate                         : 1 300 Kbps
Width                                    : 720 pixels
Height                                   : 368 pixels
Display aspect ratio                     : 1.957
Frame rate                               : 23.976 fps
Color space                              : YUV
Chroma subsampling                       : 4:2:0
Bit depth                                : 8 bits
Scan type                                : Progressive
Bits/(Pixel*Frame)                       : 0.193
Stream size                              : 477 MiB (75%)
Title                                    : MIRCrew
Writing library                          : x264 core 142 r2479 dd79a61
Encoding settings                        : cabac=1 / ref=1 / deblock=1:0:0 /
Default                                  : Yes
Forced                                   : No
Color primaries                          : BT.709-5, BT.1361, IEC 61966-2-4, SMPTE RP177
Transfer characteristics                 : BT.709-5, BT.1361
Matrix coefficients                      : BT.709-5, BT.1361, IEC 61966-2-4 709, SMPTE RP177

Audio #1
ID                                       : 2
Format                                   : AC-3
Format/Info                              : Audio Coding 3
Mode extension                           : CM (complete main)
Codec ID                                 : A_AC3
Duration                                 : 54mn 21s
Bit rate mode                            : Constant
Bit rate                                 : 192 Kbps
Channel(s)                               : 2 channels
Channel positions                        : Front: L R
Sampling rate                            : 48.0 KHz
Bit depth                                : 16 bits
Compression mode                         : Lossy
Delay relative to video                  : -5ms
Stream size                              : 74.7 MiB (12%)
Title                                    : Stereo
Language                                 : Italian
Default                                  : Yes
Forced                                   : No

Audio #2
ID                                       : 3
Format                                   : AC-3
Format/Info                              : Audio Coding 3
Mode extension                           : CM (complete main)
Codec ID                                 : A_AC3
Duration                                 : 54mn 21s
Bit rate mode                            : Constant
Bit rate                                 : 192 Kbps
Channel(s)                               : 2 channels
Channel positions                        : Front: L R
Sampling rate                            : 48.0 KHz
Bit depth                                : 16 bits
Compression mode                         : Lossy
Delay relative to video                  : -5ms
Stream size                              : 74.7 MiB (12%)
Title                                    : Stereo
Language                                 : English
Default                                  : No
Forced                                   : No

Text #1
ID                                       : 4
Format                                   : ASS
Codec ID                                 : S_TEXT/ASS
Codec ID/Info                            : Advanced Sub Station Alpha
Compression mode                         : Lossless
Language                                 : Italian
Default                                  : No
Forced                                   : No

Text #2
ID                                       : 5
Format                                   : ASS
Codec ID                                 : S_TEXT/ASS
Codec ID/Info                            : Advanced Sub Station Alpha
Compression mode                         : Lossless
Language                                 : English
Default                                  : No
Forced                                   : No








Info: Per scaricare devi usare un client come uTorrent o Transmission
AnnounceURL
udp://tracker.torrent.eu.org:451/announce
Hash 5def3db2bf575dc7a8ac3f244c52b47f36f4f865
Peers seeds: 16 , leech: 5
Size 6.71 GB
Completato 386x
Aggiunto 03.05.21 - 18:05:13
Uploader   robbyrs
Votazione (Voti: 0)


Condividi questo bittorrent:


html/blog:


bbcode/forum:




Aggiungi Commento