* Dettagli Torrent   globale  | Commenti (0) 


- Star Trek Discovery - Stagioni 1-2-3 (06/13) - AC3 5.1 ITA ENG 1080p H265 - Dennis MIRCrew -


Download via torrent:
Categoria bittorrent SerieTv
Descrizione
Star Trek: Discovery



Informazioni
  • Titolo originale: Star Trek: Discovery
  • Paese: Stati Uniti D'America
  • Anno:2017 – in produzione
  • Formato serie TV
  • Genere: Fantascienza
  • Stagioni: 2 + Short Treks
  • Episodi: 29 + 4 Short Treks
  • Durata: 45 minuti circa (per episodio)
  • Lingua originale: inglese
  • Dimensione: 31,4 GB
  • IMDB: tt5171438

    Personaggi e Interpreti
  • Michael Burnham (stagione 1 - in corso), interpretata da Sonequa Martin-Green, doppiata da Gemma Donati.
  • Saru (stagione 1 - in corso), interpretato da Doug Jones, doppiato da Alessio Cigliano.
  • Voq/Ash Tyler (stagione 1 - in corso), interpretato da Shazad Latif, doppiato da Andrea Mete.
  • Paul Stamets (stagione 1 - in corso), interpretato da Anthony Rapp, doppiato da Riccardo Rossi.
  • Sylvia Tilly (stagione 1 - in corso), interpretata da Mary Wiseman, doppiata da Giulia Santilli.
  • Gabriel Lorca (stagione 1), interpretato da Jason Isaacs, doppiato da Fabrizio Pucci.
  • Hugh Culber (stagione 1 - in corso), interpretato da Wilson Cruz, doppiato da Nanni Baldini.
  • Christopher Pike (stagione 2 - in corso), interpretato da Anson Mount, doppiato da Marco Vivio.

    Trama
    Ambientata all'incirca dieci anni prima degli eventi della serie originale di Star Trek, la serie segue le avventure della USS Discovery nel suo viaggio nello spazio, alla scoperta di nuovi mondi e nuove civiltà.[3][4] Nella prima stagione l'equipaggio della Discovery prende parte al breve conflitto tra la Federazione Unita dei Pianeti e l'Impero Klingon, mentre nella seconda viene guidato dal capitano Christopher Pike nell'indagine su strani segnali ricevuti dalla Flotta stellare e che coinvolgerà Spock a livello personale.

    Screenshots
    Stagione 1

    Short Treks

    Stagione 2

    Stagione 3

    Scheda Tecnica

    General
    Unique ID                      : 103523597650863070652116271580393642272 (0x4DE1EB6F46061773F9BF29E828461920)
    Complete name                  : E:Serie TVStar Trek Discovery - Stagione 1 (2017) H265Star Trek Discovery - 01x01 - Un Saluto Vulcaniano.mkv
    Format                         : Matroska
    Format version                 : Version 4 / Version 2
    File size                      : 969 MiB
    Duration                       : 43 min 20 s
    Overall bit rate               : 3 127 kb/s
    Movie name                     : Star Trek: Discovery - S01E01 - The Vulcan Hello
    Encoded date                   : UTC 2020-06-18 01:11:13
    Writing application            : mkvmerge v46.0.0 ('No Deeper Escape&#39 64-bit
    Writing library                : libebml v1.3.10 + libmatroska v1.5.2
    Writing frontend               : StaxRip v1.7.0.6

    Video
    ID                             : 1
    Format                         : HEVC
    Format/Info                    : High Efficiency Video Coding
    Format profile                 : Main [email protected]@Main
    Codec ID                       : V_MPEGH/ISO/HEVC
    Duration                       : 42 min 37 s
    Bit rate                       : 2 396 kb/s
    Width                          : 1 920 pixels
    Height                         : 960 pixels
    Display aspect ratio           : 2.000
    Frame rate mode                : Constant
    Frame rate                     : 23.976 (24000/1001) FPS
    Color space                    : YUV
    Chroma subsampling             : 4:2:0
    Bit depth                      : 10 bits
    Bits/(Pixel*Frame)             : 0.054
    Stream size                    : 730 MiB (75%)
    Writing library                : x265 2.9+4-471726d3a046:[Windows][GCC 8.2.0][64 bit] 10bit
    Encoding settings              : cpuid=1111039 / frame-threads=2 / numa-pools=4 / wpp / no-pmode / no-pme / no-psnr / ssim / log-level=2 / input-csp=1 / input-res=1920x960 / interlace=0 / total-frames=61315 / level-idc=0 / high-tier=1 / uhd-bd=0 / ref=3 / no-allow-non-conformance / no-repeat-headers / annexb / no-aud / no-hrd / info / hash=0 / no-temporal-layers / open-gop / min-keyint=23 / keyint=250 / gop-lookahead=0 / bframes=8 / b-adapt=2 / b-pyramid / bframe-bias=0 / rc-lookahead=50 / lookahead-slices=6 / scenecut=40 / radl=0 / no-intra-refresh / ctu=64 / min-cu-size=8 / no-rect / no-amp / max-tu-size=32 / tu-inter-depth=1 / tu-intra-depth=1 / limit-tu=0 / rdoq-level=0 / dynamic-rd=0.00 / no-ssim-rd / signhide / no-tskip / nr-intra=0 / nr-inter=0 / no-constrained-intra / no-strong-intra-smoothing / max-merge=3 / limit-refs=3 / no-limit-modes / me=3 / subme=5 / merange=57 / temporal-mvp / weightp / no-weightb / no-analyze-src-pics / deblock=0:0 / sao / no-sao-non-deblock / rd=3 / no-early-skip / no-rskip / no-fast-intra / no-tskip-fast / no-cu-lossless / no-b-intra / no-splitrd-skip / rdpenalty=0 / psy-rd=2.00 / psy-rdoq=0.00 / no-rd-refine / no-lossless / cbqpoffs=0 / crqpoffs=0 / rc=crf / crf=20.0 / qcomp=0.60 / qpstep=4 / stats-write=0 / stats-read=0 / ipratio=1.40 / pbratio=1.30 / aq-mode=3 / aq-strength=1.00 / cutree / zone-count=0 / no-strict-cbr / qg-size=32 / no-rc-grain / qpmax=69 / qpmin=0 / no-const-vbv / sar=0 / overscan=0 / videoformat=5 / range=0 / colorprim=2 / transfer=2 / colormatrix=2 / chromaloc=0 / display-window=0 / max-cll=0,0 / min-luma=0 / max-luma=1023 / log2-max-poc-lsb=8 / vui-timing-info / vui-hrd-info / slices=1 / no-opt-qp-pps / no-opt-ref-list-length-pps / no-multi-pass-opt-rps / scenecut-bias=0.05 / no-opt-cu-delta-qp / no-aq-motion / no-hdr / no-hdr-opt / no-dhdr10-opt / no-idr-recovery-sei / analysis-reuse-level=5 / scale-factor=0 / refine-intra=0 / refine-inter=0 / refine-mv=0 / no-limit-sao / ctu-info=0 / no-lowpass-dct / refine-mv-type=0 / copy-pic=1 / max-ausize-factor=1.0 / no-dynamic-refine / no-single-sei
    Default                        : Yes
    Forced                         : No

    Audio #1
    ID                             : 2
    Format                         : AC-3
    Format/Info                    : Audio Coding 3
    Format settings, Endianness    : Big
    Codec ID                       : A_AC3
    Duration                       : 43 min 20 s
    Bit rate mode                  : Constant
    Bit rate                       : 384 kb/s
    Channel(s)                     : 6 channels
    Channel positions              : Front: L C R, Side: L R, LFE
    Sampling rate                  : 48.0 kHz
    Frame rate                     : 31.250 FPS (1536 SPF)
    Bit depth                      : 16 bits
    Compression mode               : Lossy
    Delay relative to video        : 16 ms
    Stream size                    : 119 MiB (12%)
    Title                          : 5.1
    Language                       : Italian
    Service kind                   : Complete Main
    Default                        : Yes
    Forced                         : No

    Audio #2
    ID                             : 3
    Format                         : AC-3
    Format/Info                    : Audio Coding 3
    Format settings, Endianness    : Big
    Codec ID                       : A_AC3
    Duration                       : 43 min 20 s
    Bit rate mode                  : Constant
    Bit rate                       : 384 kb/s
    Channel(s)                     : 6 channels
    Channel positions              : Front: L C R, Side: L R, LFE
    Sampling rate                  : 48.0 kHz
    Frame rate                     : 31.250 FPS (1536 SPF)
    Bit depth                      : 16 bits
    Compression mode               : Lossy
    Delay relative to video        : 16 ms
    Stream size                    : 119 MiB (12%)
    Title                          : 5.1
    Language                       : English
    Service kind                   : Complete Main
    Default                        : No
    Forced                         : No

    Text #1
    ID                             : 4
    Format                         : UTF-8
    Codec ID                       : S_TEXT/UTF8
    Codec ID/Info                  : UTF-8 Plain Text
    Duration                       : 40 min 55 s
    Bit rate                       : 7 b/s
    Count of elements              : 94
    Stream size                    : 2.24 KiB (0%)
    Title                          : Forced ITA
    Language                       : Italian
    Default                        : No
    Forced                         : Yes

    Text #2
    ID                             : 5
    Format                         : UTF-8
    Codec ID                       : S_TEXT/UTF8
    Codec ID/Info                  : UTF-8 Plain Text
    Duration                       : 29 min 34 s
    Bit rate                       : 8 b/s
    Count of elements              : 65
    Stream size                    : 1.89 KiB (0%)
    Title                          : Forced ENG
    Language                       : English
    Default                        : No
    Forced                         : Yes

    Text #3
    ID                             : 6
    Format                         : UTF-8
    Codec ID                       : S_TEXT/UTF8
    Codec ID/Info                  : UTF-8 Plain Text
    Duration                       : 41 min 36 s
    Bit rate                       : 78 b/s
    Count of elements              : 642
    Stream size                    : 23.8 KiB (0%)
    Title                          : ITA
    Language                       : Italian
    Default                        : No
    Forced                         : No

    Text #4
    ID                             : 7
    Format                         : UTF-8
    Codec ID                       : S_TEXT/UTF8
    Codec ID/Info                  : UTF-8 Plain Text
    Duration                       : 42 min 2 s
    Bit rate                       : 84 b/s
    Count of elements              : 652
    Stream size                    : 26.1 KiB (0%)
    Title                          : ENG
    Language                       : English
    Default                        : Yes
    Forced                         : No

    Menu
    00:00:00.000                   : en:Chapter 1
    00:07:28.114                   : en:Chapter 2
    00:19:26.457                   : en:Chapter 3
    00:26:15.240                   : en:Chapter 4
    00:34:06.378                   : en:Chapter 5
    00:42:05.273                   : en:Chapter 6
  • Info: Per scaricare devi usare un client come uTorrent o Transmission
    AnnounceURL
    udp://tracker.coppersurfer.tk:6969/announce
    Hash 5129f7731447e46bbf8c07fe4658d9c127f03247
    Peers seeds: 0 , leech: 0
    Size 39.97 GB
    Completato 0x
    Aggiunto 22.11.20 - 13:11:09
    Uploader   Dennis1
    Votazione (Voti: 0)


    Condividi questo bittorrent:


    html/blog:


    bbcode/forum:




    Aggiungi Commento