* Dettagli Torrent   globale  | Commenti (0) 


- Homecoming.S02E01-07.iTA.ENG.1080p.DDP5.1.WEB.H264-DENiED -


Download via torrent:
Categoria bittorrent SerieTv
Descrizione


[size=36pt]Homecoming - Stagione 2[/size]




Ideatore: Eli Horowitz, Micah Bloomberg
Genere: Drammatico
Anno: 2018
Paese: USA
Durata: 30 min
Stato: In produzione



Homecoming è una serie tv di Amazon Prime Video incentrata su Heidi Bergman (Julia Roberts, Erin Brockovich, Pretty Woman), un'assistente sociale impiegata presso l'Homecoming Transitional Support Centre, una struttura governativa segreta situata a Tampa, in Florida. Il centro si occupa di accogliere e aiutare i veterani di guerra a reinserirsi nel mondo civile, offrendo loro un supporto psicologico e predisponendo appositi corsi pratici di comportamento per superare tutti i traumi legati al tempo passato sotto le armi. Nello specifico, Heidi, professionista scrupolosa e appassionata, si occupa di intrattenere colloqui giornalieri con i propri pazienti al fine di verificare come procede il loro percorso di reinserimento, sotto la supervisione del suo capo, il perfido Colin Belfast (Bobby Cannavale, Mr. Robot). Durante questi colloqui, la protagonista mostra uno spiccato interesse per uno dei pazienti, Walter Cruz (Stephan James, Race: Il colore della vittoria), un giovane soldato il quale non mostra segni apparenti di squilibrio e sembra ansioso di tornare alla normalità.


[spoiler][/spoiler]


[spoiler]Complete name               : Homecoming.S02E01.iTA.ENG.1080p.DDP5.1.WEB.H264-DENiED.mkv
Format                      : Matroska
Format version              : Version 4
File size                   : 1.80 GiB
Duration                    : 31 min 5 s
Overall bit rate            : 8 306 kb/s
Encoded date                : UTC 2020-05-22 01:02:14
Writing application         : mkvmerge v45.0.0 ('Heaven in Pennies&#39 64-bit
Writing library             : libebml v1.3.10 + libmatroska v1.5.2

Video
ID                          : 1
Format                      : AVC
Format/Info                 : Advanced Video Codec
Format profile              : [email protected]
Format settings             : CABAC / 4 Ref Frames
Format settings, CABAC      : Yes
Format settings, Reference  : 4 frames
Codec ID                    : V_MPEG4/ISO/AVC
Duration                    : 31 min 5 s
Bit rate mode               : Constant
Bit rate                    : 7 023 kb/s
Nominal bit rate            : 10 000 kb/s
Width                       : 1 920 pixels
Height                      : 1 080 pixels
Display aspect ratio        : 16:9
Frame rate mode             : Constant
Frame rate                  : 23.976 (24000/1001) FPS
Color space                 : YUV
Chroma subsampling          : 4:2:0
Bit depth                   : 8 bits
Scan type                   : Progressive
Bits/(Pixel*Frame)          : 0.141
Stream size                 : 1.53 GiB (85%)
Default                     : Yes
Forced                      : No
Color range                 : Limited
Color primaries             : BT.709
Transfer characteristics    : BT.709
Matrix coefficients         : BT.709

Audio #1
ID                          : 2
Format                      : E-AC-3
Format/Info                 : Enhanced AC-3
Commercial name             : Dolby Digital Plus
Codec ID                    : A_EAC3
Duration                    : 31 min 5 s
Bit rate mode               : Constant
Bit rate                    : 640 kb/s
Channel(s)                  : 6 channels
Channel layout              : L R C LFE Ls Rs
Sampling rate               : 48.0 kHz
Frame rate                  : 31.250 FPS (1536 SPF)
Compression mode            : Lossy
Stream size                 : 142 MiB (8%)
Title                       : DDP5.1
Language                    : Italian
Service kind                : Complete Main
Default                     : Yes
Forced                      : No

Audio #2
ID                          : 3
Format                      : E-AC-3
Format/Info                 : Enhanced AC-3
Commercial name             : Dolby Digital Plus
Codec ID                    : A_EAC3
Duration                    : 31 min 5 s
Bit rate mode               : Constant
Bit rate                    : 640 kb/s
Channel(s)                  : 6 channels
Channel layout              : L R C LFE Ls Rs
Sampling rate               : 48.0 kHz
Frame rate                  : 31.250 FPS (1536 SPF)
Compression mode            : Lossy
Stream size                 : 142 MiB (8%)
Title                       : DDP5.1
Language                    : English
Service kind                : Complete Main
Default                     : No
Forced                      : No

Text #1
ID                          : 4
Format                      : UTF-8
Codec ID                    : S_TEXT/UTF8
Codec ID/Info               : UTF-8 Plain Text
Duration                    : 26 min 58 s
Bit rate                    : 47 b/s
Count of elements           : 326
Stream size                 : 9.36 KiB (0%)
Title                       : COMPLETE
Language                    : Italian
Default                     : No
Forced                      : No

Text #2
ID                          : 5
Format                      : UTF-8
Codec ID                    : S_TEXT/UTF8
Codec ID/Info               : UTF-8 Plain Text
Duration                    : 28 min 12 s
Bit rate                    : 57 b/s
Count of elements           : 450
Stream size                 : 11.9 KiB (0%)
Title                       : COMPLETE
Language                    : English
Default                     : No
Forced                      : No

Menu
00:00:00.000                : en:Amazon Original
00:00:05.000                : enreviously On
00:01:29.000                : en:Opening Credits
00:01:45.000                : en:Waking up on a boat
00:04:18.000                : en:Title Sequence
00:04:24.000                : en:Lost in the woods
00:08:15.000                : en:Questions at the hospital
00:12:48.000                : en:Trying to figure out what happened
00:17:02.000                : en:Clues at the karaoke bar
00:20:02.000                : en:Looking through receipts
00:20:58.000                : en:Searching the hotel
00:27:41.000                : en:Farming
00:28:20.000                : en:End Credits[/spoiler]
Info: Per scaricare devi usare un client come uTorrent o Transmission
AnnounceURL
udp://tracker.coppersurfer.tk:6969/announce
Hash eb9da82ff4251803e64c13e2c52e7d0a1fff1012
Peers seeds: 0 , leech: 0
Size 14.54 GB
Completato 0x
Aggiunto 22.05.20 - 21:05:58
Uploader Anonymous
Votazione (Voti: 0)


Condividi questo bittorrent:


html/blog:


bbcode/forum:




Aggiungi Commento