Loading...
 * Dettagli Torrent   globale  | Commenti (0) 


- Enrico Piaggio - Un sogno italiano - Vespa (2019).720p.H264.ita.Ac3-MIRCrew -


Download via torrent:
Categoria bittorrent BDRip
Descrizione
Enrico Piaggio - Un sogno italiano - Vespa (2019).720p.H264.ita.Ac3-MIRCrew


NO FOUND ONLY ORIGINAL RELEASE

My release is always in double track audio italian and Original audio
for select it use VLC or dvd player home
not use wmp

Enrico Piaggio - Un sogno italiano (2019)

Quality MIRCrew on HD 720p da 1,8 gb








Country: Italy
Language: Italian
Release Date: 12 November 2019 (Italy)
Also Known As: Enrico Piaggio - Un sogno italiano



Alessio Boni è Enrico Piaggio
Enrica Pintore è Paola Bechi Luserna
Beatrice Grannò è Suso
Moisè Curia è Peter Panetta
Roberto Ciufoli è Corradino d'Ascanio
Carmen Giardina è Terlizzi
Fabio Galli è Ralli
Bruno Torrisi è Alto Commissario
Paolo Giommarelli è Capecchi
Leonardo De Carmine è Tadini
Federigo Ceci è Pacini
Giorgio Gobbi è Armando Piaggio
Elena ed Emma Minichiello sono Antonella
Francesco Pannofino è Rocchi-Battaglia
Violante Placido è Livia Rivelli



E ' il 1945. La fabbrica di Enrico Piaggio, a Pontedera, e? in macerie. I dodicimila operai che vi erano impiegati sono condannati alla disoccupazione e alla miseria. Piaggio avverte l’enorme responsabilita? che grava sulle sue spalle: la vita di tante famiglie dipende dalla sua capacita? di creare nuovo lavoro. Nella mente dell’imprenditore nasce un progetto: un mezzo di trasporto piccolo, robusto, agile ed economico, capace di rilanciare la mobilita? dando impulso alla ripresa della vita economica e civile del Paese



The life of Enrico Piaggio and the story of the most famous scooter in the world "VESPA"







General
Unique ID                                : 248607486481797642736900950127927305021 (0xBB080F6D4AC1EBD2B59D71416133233D)
Complete name                            : Enrico Piaggio - Un sogno italiano (2019).720p.h264.ita-MIRcrew.mkv
Format                                   : Matroska
Format version                           : Version 2
File size                                : 1.85 GiB
Duration                                 : 1h 42mn
Overall bit rate                         : 2 595 Kbps
Movie name                               : robbyrs
Encoded date                             : UTC 2019-11-14 09:35:24
Writing application                      : mkvmerge v5.8.0 ('No Sleep / Pillow&#39 built on Sep  2 2012 15:37:04
Writing library                          : libebml v1.2.3 + libmatroska v1.3.0

Video
ID                                       : 1
Format                                   : AVC
Format/Info                              : Advanced Video Codec
Format profile                           : [email protected]
Format settings, CABAC                   : Yes
Format settings, ReFrames                : 4 frames
Codec ID                                 : V_MPEG4/ISO/AVC
Duration                                 : 1h 42mn
Bit rate                                 : 2 400 Kbps
Width                                    : 1 280 pixels
Height                                   : 720 pixels
Display aspect ratio                     : 16:9
Frame rate mode                          : Variable
Frame rate                               : 25.000 fps
Color space                              : YUV
Chroma subsampling                       : 4:2:0
Bit depth                                : 8 bits
Scan type                                : Progressive
Bits/(Pixel*Frame)                       : 0.104
Stream size                              : 1.68 GiB (91%)
Title                                    : robbyrs
Writing library                          : x264 core 142 r2495 6a301b6
Encoding settings                        : cabac=1 / ref=2 / deblock=1:0:0 / analyse=0x1:0x111 / me=umh / subme=9 / psy=1 / psy_rd=1.00:0.00 / mixed_ref=1 / me_range=16 / chroma_me=1 / trellis=1 / 8x8dct=0 / cqm=0 / deadzone=21,11 / fast_pskip=1 / chroma_qp_offset=-2 / threads=72 / lookahead_threads=5 / sliced_threads=0 / nr=0 / decimate=1 / interlaced=0 / bluray_compat=0 / constrained_intra=0 / bframes=6 / b_pyramid=2 / b_adapt=1 / b_bias=0 / direct=1 / weightb=1 / open_gop=0 / weightp=2 / keyint=50 / keyint_min=25 / scenecut=40 / intra_refresh=0 / rc_lookahead=40 / rc=abr / mbtree=1 / bitrate=2400 / ratetol=1.0 / qcomp=0.60 / qpmin=10 / qpmax=51 / qpstep=4 / ip_ratio=1.41 / aq=1:1.00
Language                                 : Italian
Default                                  : Yes
Forced                                   : No

Audio
ID                                       : 2
Format                                   : AC-3
Format/Info                              : Audio Coding 3
Mode extension                           : CM (complete main)
Codec ID                                 : A_AC3
Duration                                 : 1h 42mn
Bit rate mode                            : Constant
Bit rate                                 : 192 Kbps
Channel(s)                               : 2 channels
Channel positions                        : Front: L R
Sampling rate                            : 44.1 KHz
Bit depth                                : 16 bits
Compression mode                         : Lossy
Stream size                              : 141 MiB (7%)
Title                                    : Ita Ac3
Language                                 : Italian
Default                                  : Yes
Forced                                   : No







Info: Per scaricare devi usare un client come uTorrent o Transmission
AnnounceURL
udp://tracker.coppersurfer.tk:6969/announce
Hash 1aba96165ea317939e79eb3814f74fa14b842626
Peers seeds: 122 , leech: 12
Size 1.85 GB
Completato 3818x
Aggiunto 14.11.19 - 14:11:37
Uploader   robbyrs
Votazione (Voti: 1)


Condividi questo bittorrent:


html/blog:


bbcode/forum:




Aggiungi Commento