* Visualizza .nfo  

Cambiate i DNS con DNS Jumper per i meno esperti (Google DNS o Cloudflare DNS)




General
Complete name                            : Tre Allegri Ragazzi Morti - La Seconda Rivoluzione Sessuale/11 - Ninnanannapernina.Mp3
Format                                   : MPEG Audio
File size                                : 5.98 MiB
Duration                                 : 4mn 22s
Overall bit rate mode                    : Variable
Overall bit rate                         : 191 Kbps
Album                                    : La seconda rivoluzione sessuale
Album/Performer                          : Tre allegri ragazzi morti
Track name                               : Ninnanannapernina
Track name/Position                      : 11
Performer                                : Tre allegri ragazzi morti
Publisher                                : La Tempesta
Genre                                    : Punk Rock
Recorded date                            : 2007
Writing library                          : LAME3.97b

Audio
Format                                   : MPEG Audio
Format version                           : Version 1
Format profile                           : Layer 3
Duration                                 : 4mn 22s
Bit rate mode                            : Variable
Bit rate                                 : 191 Kbps
Minimum bit rate                         : 192 Kbps
Channel(s)                               : 2 channels
Sampling rate                            : 44.1 KHz
Compression mode                         : Lossy
Stream size                              : 5.98 MiB (100%)
Writing library                          : LAME3.97b
Encoding settings                        : -m s -V 3 -q 3 -lowpass 18 --vbr-new -b 192

General
Complete name                            : Tre Allegri Ragazzi Morti - La Seconda Rivoluzione Sessuale/12 - Mio Fratellino Ha Scoperto Il Rock'n Roll.Mp3
Format                                   : MPEG Audio
File size                                : 3.36 MiB
Duration                                 : 2mn 27s
Overall bit rate mode                    : Variable
Overall bit rate                         : 191 Kbps
Album                                    : La seconda rivoluzione sessuale
Album/Performer                          : Tre allegri ragazzi morti
Track name                               : Mio fratellino ha scoperto il rock'n roll
Track name/Position                      : 12
Performer                                : Tre allegri ragazzi morti
Publisher                                : La Tempesta
Genre                                    : Punk Rock
Recorded date                            : 2007
Writing library                          : LAME3.97b

Audio
Format                                   : MPEG Audio
Format version                           : Version 1
Format profile                           : Layer 3
Duration                                 : 2mn 27s
Bit rate mode                            : Variable
Bit rate                                 : 191 Kbps
Minimum bit rate                         : 192 Kbps
Channel(s)                               : 2 channels
Sampling rate                            : 44.1 KHz
Compression mode                         : Lossy
Stream size                              : 3.35 MiB (100%)
Writing library                          : LAME3.97b
Encoding settings                        : -m s -V 3 -q 3 -lowpass 18 --vbr-new -b 192

General
Complete name                            : Tre Allegri Ragazzi Morti - La Seconda Rivoluzione Sessuale/cover.jpg
Format                                   : JPEG
File size                                : 28.1 KiB

Image
Format                                   : JPEG
Width                                    : 500 pixels
Height                                   : 449 pixels
Color space                              : YUV
Chroma subsampling                       : 4:4:4
Bit depth                                : 8 bits
Compression mode                         : Lossy
Stream size                              : 28.1 KiB (100%)

General
Complete name                            : Tre Allegri Ragazzi Morti - La Seconda Rivoluzione Sessuale/04 - L'impegno.Mp3
Format                                   : MPEG Audio
File size                                : 5.44 MiB
Duration                                 : 3mn 58s
Overall bit rate mode                    : Variable
Overall bit rate                         : 191 Kbps
Album                                    : La seconda rivoluzione sessuale
Album/Performer                          : Tre allegri ragazzi morti
Track name                               : L'Impegno
Track name/Position                      : 4
Performer                                : Tre allegri ragazzi morti
Publisher                                : La Tempesta
Genre                                    : Punk Rock
Recorded date                            : 2007
Writing library                          : LAME3.97b

Audio
Format                                   : MPEG Audio
Format version                           : Version 1
Format profile                           : Layer 3
Duration                                 : 3mn 58s
Bit rate mode                            : Variable
Bit rate                                 : 191 Kbps
Minimum bit rate                         : 192 Kbps
Channel(s)                               : 2 channels
Sampling rate                            : 44.1 KHz
Compression mode                         : Lossy
Stream size                              : 5.43 MiB (100%)
Writing library                          : LAME3.97b
Encoding settings                        : -m s -V 3 -q 3 -lowpass 18 --vbr-new -b 192

General
Complete name                            : Tre Allegri Ragazzi Morti - La Seconda Rivoluzione Sessuale/03 - Il Mondo Prima.Mp3
Format                                   : MPEG Audio
File size                                : 3.58 MiB
Duration                                 : 2mn 36s
Overall bit rate mode                    : Variable
Overall bit rate                         : 191 Kbps
Album                                    : La seconda rivoluzione sessuale
Album/Performer                          : Tre allegri ragazzi morti
Track name                               : Il mondo prima
Track name/Position                      : 3
Performer                                : Tre allegri ragazzi morti
Publisher                                : La Tempesta
Genre                                    : Punk Rock
Recorded date                            : 2007
Writing library                          : LAME3.97b

Audio
Format                                   : MPEG Audio
Format version                           : Version 1
Format profile                           : Layer 3
Duration                                 : 2mn 36s
Bit rate mode                            : Variable
Bit rate                                 : 191 Kbps
Minimum bit rate                         : 192 Kbps
Channel(s)                               : 2 channels
Sampling rate                            : 44.1 KHz
Compression mode                         : Lossy
Stream size                              : 3.57 MiB (100%)
Writing library                          : LAME3.97b
Encoding settings                        : -m s -V 3 -q 3 -lowpass 18 --vbr-new -b 192

General
Complete name                            : Tre Allegri Ragazzi Morti - La Seconda Rivoluzione Sessuale/02 - Allegria Senza Fine.Mp3
Format                                   : MPEG Audio
File size                                : 4.64 MiB
Duration                                 : 3mn 23s
Overall bit rate mode                    : Variable
Overall bit rate                         : 191 Kbps
Album                                    : La seconda rivoluzione sessuale
Album/Performer                          : Tre allegri ragazzi morti
Track name                               : Allegria senza fine
Track name/Position                      : 2
Performer                                : Tre allegri ragazzi morti
Publisher                                : La Tempesta
Genre                                    : Punk Rock
Recorded date                            : 2007
Writing library                          : LAME3.97b

Audio
Format                                   : MPEG Audio
Format version                           : Version 1
Format profile                           : Layer 3
Duration                                 : 3mn 23s
Bit rate mode                            : Variable
Bit rate                                 : 191 Kbps
Minimum bit rate                         : 192 Kbps
Channel(s)                               : 2 channels
Sampling rate                            : 44.1 KHz
Compression mode                         : Lossy
Stream size                              : 4.64 MiB (100%)
Writing library                          : LAME3.97b
Encoding settings                        : -m s -V 3 -q 3 -lowpass 18 --vbr-new -b 192

General
Complete name                            : Tre Allegri Ragazzi Morti - La Seconda Rivoluzione Sessuale/05 - Lorenzo Piedi Grandi.Mp3
Format                                   : MPEG Audio
File size                                : 5.05 MiB
Duration                                 : 3mn 41s
Overall bit rate mode                    : Variable
Overall bit rate                         : 191 Kbps
Album                                    : La seconda rivoluzione sessuale
Album/Performer                          : Tre allegri ragazzi morti
Track name                               : Lorenzo piedi grandi
Track name/Position                      : 5
Performer                                : Tre allegri ragazzi morti
Publisher                                : La Tempesta
Genre                                    : Punk Rock
Recorded date                            : 2007
Writing library                          : LAME3.97b

Audio
Format                                   : MPEG Audio
Format version                           : Version 1
Format profile                           : Layer 3
Duration                                 : 3mn 41s
Bit rate mode                            : Variable
Bit rate                                 : 191 Kbps
Minimum bit rate                         : 192 Kbps
Channel(s)                               : 2 channels
Sampling rate                            : 44.1 KHz
Compression mode                         : Lossy
Stream size                              : 5.04 MiB (100%)
Writing library                          : LAME3.97b
Encoding settings                        : -m s -V 3 -q 3 -lowpass 18 --vbr-new -b 192

General
Complete name                            : Tre Allegri Ragazzi Morti - La Seconda Rivoluzione Sessuale/07 - La Sindrome Di Bangs.Mp3
Format                                   : MPEG Audio
File size                                : 5.73 MiB
Duration                                 : 4mn 11s
Overall bit rate mode                    : Variable
Overall bit rate                         : 191 Kbps
Album                                    : La seconda rivoluzione sessuale
Album/Performer                          : Tre allegri ragazzi morti
Track name                               : La Sindrome di Bangs
Track name/Position                      : 7
Performer                                : Tre allegri ragazzi morti
Publisher                                : La Tempesta
Genre                                    : Punk Rock
Recorded date                            : 2007
Writing library                          : LAME3.97b

Audio
Format                                   : MPEG Audio
Format version                           : Version 1
Format profile                           : Layer 3
Duration                                 : 4mn 11s
Bit rate mode                            : Variable
Bit rate                                 : 191 Kbps
Minimum bit rate                         : 192 Kbps
Channel(s)                               : 2 channels
Sampling rate                            : 44.1 KHz
Compression mode                         : Lossy
Stream size                              : 5.73 MiB (100%)
Writing library                          : LAME3.97b
Encoding settings                        : -m s -V 3 -q 3 -lowpass 18 --vbr-new -b 192

General
Complete name                            : Tre Allegri Ragazzi Morti - La Seconda Rivoluzione Sessuale/01 - Come Ti Chiami!.Mp3
Format                                   : MPEG Audio
File size                                : 3.77 MiB
Duration                                 : 2mn 48s
Overall bit rate mode                    : Variable
Overall bit rate                         : 188 Kbps
Album                                    : La seconda rivoluzione sessuale
Album/Performer                          : Tre allegri ragazzi morti
Track name                               : Come ti chiami!
Track name/Position                      : 1
Performer                                : Tre allegri ragazzi morti
Publisher                                : La Tempesta
Genre                                    : Punk Rock
Recorded date                            : 2007
Writing library                          : LAME3.97b

Audio
Format                                   : MPEG Audio
Format version                           : Version 1
Format profile                           : Layer 3
Duration                                 : 2mn 48s
Bit rate mode                            : Variable
Bit rate                                 : 188 Kbps
Minimum bit rate                         : 192 Kbps
Channel(s)                               : 2 channels
Sampling rate                            : 44.1 KHz
Compression mode                         : Lossy
Stream size                              : 3.77 MiB (100%)
Writing library                          : LAME3.97b
Encoding settings                        : -m s -V 3 -q 3 -lowpass 18 --vbr-new -b 192

General
Complete name                            : Tre Allegri Ragazzi Morti - La Seconda Rivoluzione Sessuale/08 - La Sorella Di Mio Fratello.Mp3
Format                                   : MPEG Audio
File size                                : 6.69 MiB
Duration                                 : 4mn 52s
Overall bit rate mode                    : Variable
Overall bit rate                         : 192 Kbps
Album                                    : La seconda rivoluzione sessuale
Album/Performer                          : Tre allegri ragazzi morti
Track name                               : La Sorella di mio fratello
Track name/Position                      : 8
Performer                                : Tre allegri ragazzi morti
Publisher                                : La Tempesta
Genre                                    : Punk Rock
Recorded date                            : 2007
Writing library                          : LAME3.97b

Audio
Format                                   : MPEG Audio
Format version                           : Version 1
Format profile                           : Layer 3
Duration                                 : 4mn 52s
Bit rate mode                            : Variable
Bit rate                                 : 192 Kbps
Minimum bit rate                         : 192 Kbps
Channel(s)                               : 2 channels
Sampling rate                            : 44.1 KHz
Compression mode                         : Lossy
Stream size                              : 6.69 MiB (100%)
Writing library                          : LAME3.97b
Encoding settings                        : -m s -V 3 -q 3 -lowpass 18 --vbr-new -b 192

General
Complete name                            : Tre Allegri Ragazzi Morti - La Seconda Rivoluzione Sessuale/10 - La Poesia E La Merce.Mp3
Format                                   : MPEG Audio
File size                                : 4.84 MiB
Duration                                 : 3mn 31s
Overall bit rate mode                    : Variable
Overall bit rate                         : 192 Kbps
Album                                    : La seconda rivoluzione sessuale
Album/Performer                          : Tre allegri ragazzi morti
Track name                               : La Poesia e la Merce
Track name/Position                      : 10
Performer                                : Tre allegri ragazzi morti
Publisher                                : La Tempesta
Genre                                    : Punk Rock
Recorded date                            : 2007
Writing library                          : LAME3.97b

Audio
Format                                   : MPEG Audio
Format version                           : Version 1
Format profile                           : Layer 3
Duration                                 : 3mn 31s
Bit rate mode                            : Variable
Bit rate                                 : 192 Kbps
Minimum bit rate                         : 192 Kbps
Channel(s)                               : 2 channels
Sampling rate                            : 44.1 KHz
Compression mode                         : Lossy
Stream size                              : 4.84 MiB (100%)
Writing library                          : LAME3.97b
Encoding settings                        : -m s -V 3 -q 3 -lowpass 18 --vbr-new -b 192

General
Complete name                            : Tre Allegri Ragazzi Morti - La Seconda Rivoluzione Sessuale/09 - La Salamandra.Mp3
Format                                   : MPEG Audio
File size                                : 3.67 MiB
Duration                                 : 2mn 41s
Overall bit rate mode                    : Variable
Overall bit rate                         : 190 Kbps
Album                                    : La seconda rivoluzione sessuale
Album/Performer                          : Tre allegri ragazzi morti
Track name                               : La Salamandra
Track name/Position                      : 9
Performer                                : Tre allegri ragazzi morti
Publisher                                : La Tempesta
Genre                                    : Punk Rock
Recorded date                            : 2007
Writing library                          : LAME3.97b

Audio
Format                                   : MPEG Audio
Format version                           : Version 1
Format profile                           : Layer 3
Duration                                 : 2mn 41s
Bit rate mode                            : Variable
Bit rate                                 : 190 Kbps
Minimum bit rate                         : 192 Kbps
Channel(s)                               : 2 channels
Sampling rate                            : 44.1 KHz
Compression mode                         : Lossy
Stream size                              : 3.67 MiB (100%)
Writing library                          : LAME3.97b
Encoding settings                        : -m s -V 3 -q 3 -lowpass 18 --vbr-new -b 192

General
Complete name                            : Tre Allegri Ragazzi Morti - La Seconda Rivoluzione Sessuale/06 - In Amore Con Tutti.Mp3
Format                                   : MPEG Audio
File size                                : 5.30 MiB
Duration                                 : 3mn 52s
Overall bit rate mode                    : Variable
Overall bit rate                         : 191 Kbps
Album                                    : La seconda rivoluzione sessuale
Album/Performer                          : Tre allegri ragazzi morti
Track name                               : Tutti in amore con tutti
Track name/Position                      : 6
Performer                                : Tre allegri ragazzi morti
Publisher                                : La Tempesta
Genre                                    : Punk Rock
Recorded date                            : 2007
Writing library                          : LAME3.97b

Audio
Format                                   : MPEG Audio
Format version                           : Version 1
Format profile                           : Layer 3
Duration                                 : 3mn 52s
Bit rate mode                            : Variable
Bit rate                                 : 191 Kbps
Minimum bit rate                         : 192 Kbps
Channel(s)                               : 2 channels
Sampling rate                            : 44.1 KHz
Compression mode                         : Lossy
Stream size                              : 5.30 MiB (100%)
Writing library                          : LAME3.97b
Encoding settings                        : -m s -V 3 -q 3 -lowpass 18 --vbr-new -b 192